Mark Knopfler – Down The Road Wherever (Deluxe Edition)




No Cover available

Artist: Mark Knopfler
Year: 2018
Genre: Rock
Notes: Discogs
Add. Notes: Deluxe Edition
Watch Songs on: YouTube
Cover incl.: Yes
Encoder: FLAC
Bitrate: ~800 kBit/s (44.1 kHz/16 Bit/s)
Log & Cue incl.: Yes/Yes
Size: 489,9 MB
Password: “slam” (without ” “)


All Downloads/Hosters are compatible

Download 1
KatFile.com
Turbobit.net
FileFactory.com
Rapidgator.net
Download 2
KatFile.com
Turbobit.net
FileFactory.com
Rapidgator.net

Tracklist:

1 Trapper Man 6:02
2 Back On The Dance Floor 5:31
3 Nobody's Child 4:17
4 Just A Boy Away From Home 5:12
5 When You Leave 4:13
6 Good On You Son 5:38
7 My Bacon Roll 5:36
8 Nobody Does That 5:15
9 Drovers' Road 5:05
10 One Song At A Time 6:17
11 Floating Away 5:03
12 Slow Learner 4:34
13 Heavy Up 6:00
14 Every Heart In The Room 4:31

Bonus Tracks:
15 Rear View Mirror 2:29
16 Matchstick Man 2:54

EAC-Log, CUE-Sheed & NFO:

Click to open spoiler
Exact Audio Copy V1.2 from 12. August 2016

EAC extraction logfile from 29. November 2018, 15:59

Mark Knopfler / Down The Road Wherever (Deluxe Edition)

Used drive : ASUS SDRW-08D1S-U Adapter: 1 ID: 1

Read mode : Secure
Utilize accurate stream : Yes
Defeat audio cache : Yes
Make use of C2 pointers : No

Read offset correction : 667
Overread into Lead-In and Lead-Out : No
Fill up missing offset samples with silence : Yes
Delete leading and trailing silent blocks : No
Null samples used in CRC calculations : Yes
Used interface : Native Win32 interface for Win NT & 2000

Used output format : User Defined Encoder
Selected bitrate : 128 kBit/s
Quality : High
Add ID3 tag : No
Command line compressor : C:\Program Files (x86)\Exact Audio Copy\Flac\flac.exe
Additional command line options : -V -8 -T “Date=%year%” -T “Genre=%genre%” %source%

TOC of the extracted CD

Track | Start | Length | Start sector | End sector
———————————————————
1 | 0:00.00 | 6:01.54 | 0 | 27128
2 | 6:01.54 | 5:30.56 | 27129 | 51934
3 | 11:32.35 | 4:16.60 | 51935 | 71194
4 | 15:49.20 | 5:12.32 | 71195 | 94626
5 | 21:01.52 | 4:12.47 | 94627 | 113573
6 | 25:14.24 | 5:37.71 | 113574 | 138919
7 | 30:52.20 | 5:35.47 | 138920 | 164091
8 | 36:27.67 | 5:15.25 | 164092 | 187741
9 | 41:43.17 | 5:05.13 | 187742 | 210629
10 | 46:48.30 | 6:17.34 | 210630 | 238938
11 | 53:05.64 | 5:03.00 | 238939 | 261663
12 | 58:08.64 | 4:34.17 | 261664 | 282230
13 | 62:43.06 | 6:00.32 | 282231 | 309262
14 | 68:43.38 | 4:30.44 | 309263 | 329556
15 | 73:14.07 | 2:29.36 | 329557 | 340767
16 | 75:43.43 | 2:54.15 | 340768 | 353832

Range status and errors

Selected range

Filename C:\Users\Олег\Desktop\Mark Knopfler\Mark Knopfler – Down The Road Wherever (Deluxe Edition).wav

Peak level 98.5 %
Extraction speed 4.2 X
Range quality 100.0 %
Test CRC 75F9D7A3
Copy CRC 75F9D7A3
Copy OK

No errors occurred

AccurateRip summary

Track 1 not present in database
Track 2 not present in database
Track 3 not present in database
Track 4 not present in database
Track 5 not present in database
Track 6 not present in database
Track 7 not present in database
Track 8 not present in database
Track 9 not present in database
Track 10 not present in database
Track 11 not present in database
Track 12 not present in database
Track 13 not present in database
Track 14 not present in database
Track 15 not present in database
Track 16 not present in database

None of the tracks are present in the AccurateRip database

End of status report

—- CUETools DB Plugin V2.1.6

[CTDB TOCID: OUUbCLxUks684YpQWCE7DVZFqwU-] found
Submit result: OUUbCLxUks684YpQWCE7DVZFqwU- has been confirmed
Track | CTDB Status
1 | (270/274) Accurately ripped
2 | (271/274) Accurately ripped
3 | (270/274) Accurately ripped
4 | (270/274) Accurately ripped
5 | (271/274) Accurately ripped
6 | (271/274) Accurately ripped
7 | (271/274) Accurately ripped
8 | (271/274) Accurately ripped
9 | (271/274) Accurately ripped
10 | (269/274) Accurately ripped
11 | (271/274) Accurately ripped
12 | (269/274) Accurately ripped
13 | (269/274) Accurately ripped
14 | (269/274) Accurately ripped
15 | (264/274) Accurately ripped
16 | (263/274) Accurately ripped

==== Log checksum 8BCB6F1C877DC5698C0669F1C4C95011FF8C2D58DBA2DB6FBB462558BB068780 ====

REM GENRE Rock
REM DATE 2018
REM DISCID F2126D10
REM COMMENT “ExactAudioCopy v1.2”
PERFORMER “Mark Knopfler”
TITLE “Down The Road Wherever”
FILE “Mark Knopfler – Down The Road Wherever.flac” WAVE
TRACK 01 AUDIO
TITLE “Trapper Man”
PERFORMER “Mark Knopfler”
INDEX 01 00:00:00
TRACK 02 AUDIO
TITLE “Back On The Dance Floor”
PERFORMER “Mark Knopfler”
INDEX 01 06:01:54
TRACK 03 AUDIO
TITLE “Nobody’s Child”
PERFORMER “Mark Knopfler”
INDEX 01 11:32:35
TRACK 04 AUDIO
TITLE “Just A Boy Away From Home”
PERFORMER “Mark Knopfler”
INDEX 01 15:49:20
TRACK 05 AUDIO
TITLE “When You Leave”
PERFORMER “Mark Knopfler”
INDEX 00 21:00:35
INDEX 01 21:01:52
TRACK 06 AUDIO
TITLE “Good On You Son”
PERFORMER “Mark Knopfler”
INDEX 01 25:14:24
TRACK 07 AUDIO
TITLE “My Bacon Roll”
PERFORMER “Mark Knopfler”
INDEX 01 30:52:20
TRACK 08 AUDIO
TITLE “Nobody Does That”
PERFORMER “Mark Knopfler”
INDEX 01 36:27:67
TRACK 09 AUDIO
TITLE “Drovers’ Road”
PERFORMER “Mark Knopfler”
INDEX 01 41:43:17
TRACK 10 AUDIO
TITLE “One Song At A Time”
PERFORMER “Mark Knopfler”
INDEX 01 46:48:30
TRACK 11 AUDIO
TITLE “Floating Away”
PERFORMER “Mark Knopfler”
INDEX 00 53:04:69
INDEX 01 53:05:64
TRACK 12 AUDIO
TITLE “Slow Learner”
PERFORMER “Mark Knopfler”
INDEX 01 58:08:64
TRACK 13 AUDIO
TITLE “Heavy Up”
PERFORMER “Mark Knopfler”
INDEX 00 62:39:74
INDEX 01 62:43:06
TRACK 14 AUDIO
TITLE “Every Heart In The Room”
PERFORMER “Mark Knopfler”
INDEX 01 68:43:38
TRACK 15 AUDIO
TITLE “Rear View Mirror”
PERFORMER “Mark Knopfler”
INDEX 01 73:14:07
TRACK 16 AUDIO
TITLE “Matchstick Man”
PERFORMER “Mark Knopfler”
INDEX 00 75:41:65
INDEX 01 75:43:43


0

Publication author

offline 9 hours

Chaos

3
Comments: 4Publics: 3424Registration: 02-02-2019
Spread the Download

Leave a Reply

Your email address will not be published. Required fields are marked *

Enter the text from the image below
 

This site uses Akismet to reduce spam. Learn how your comment data is processed.