Mark Farner And Don Brewer – Monumental Funk




Artist: Mark Farner And Don Brewer
Year: 1974/2017
Genre: Rock
Notes: Discogs
Add. Notes:
Encoder: FLAC
Bitrate: ~800 kBit/s (44.1 kHz/16 Bit/s)
Bin/Cue incl.: Yes
Size: 199,52 MB
Password: “slam” (without ” “)


http://www.share-online.biz/dl/WE963PRPV5
https://rapidgator.net/file/6101f792deb547cdf287bcbb54527353
https://uploadbyte.com/gbv7tblbgg80

Tracklist:

1 - We Gotta Have Love - 5:11
2 - Hey Everybody - 3:37
3 - I've Got News For You - 4:47
4 - Come See About Me - 4:16
5 - Harlem Shuffle - 5:22
6 - Love Light - 7:06

EAC-Log, CUE-Sheed & NFO:

Click to open spoiler
EZ CD Audio Converter 7.0.6 [32-bit]

Log creation date: Oct 25 2017 18:41

I:\Uploads-Marios\Mark Farner And Don Brewer – Monumental Funk 1974 (Saga 2017)

Device: [ D: ] Optiarc DVD-ROM DDU1671S 1H17

Profile : Disc Image
Read mode : Normal
C2 pointers : Disabled
AccurateCDDA : Enabled
Software synchronization : Disabled
Drive read cache : Enabled
Verify audio : Enabled
Drive spin-up : Disabled
Sample offset : 0

Calculate ReplayGain : Enabled

Output format : .flac | Free Lossless Audio Codec
Encoder : FLAC 1.3.2
Bit depth : Auto
Channels : Auto
Sample rate : Auto
Compression level : 8

Track Start Length Start sector End sector
————————————————————-
[X] 01 00:00.00 05:09.69 0 23243
[X] 02 05:09.69 03:36.43 23244 39486
[X] 03 08:46.37 04:42.39 39487 60675
[X] 04 13:29.01 04:17.21 60676 79971
[X] 05 17:46.22 05:18.74 79972 103895
[X] 06 23:05.21 07:04.11 103896 135706
————————————————————-

Summary
——-

6 total tracks
6 copied successfully
0 copied with errors
0 failed

Track Status CRC (copy) CRC (test) Filename
——————————————————
1 Success 1C5EBE66 1C5EBE66 “Mark Farner And Don Brewer – Monumental Funk.flac”
2 Success 2B31E83E 2B31E83E “Mark Farner And Don Brewer – Monumental Funk.flac”
3 Success 86D2AC17 86D2AC17 “Mark Farner And Don Brewer – Monumental Funk.flac”
4 Success 4038CAEE 4038CAEE “Mark Farner And Don Brewer – Monumental Funk.flac”
5 Success 1915D579 1915D579 “Mark Farner And Don Brewer – Monumental Funk.flac”
6 Success 43F1E01B 43F1E01B “Mark Farner And Don Brewer – Monumental Funk.flac”

Details
——-

Track 1

Filename “Mark Farner And Don Brewer – Monumental Funk.flac”

Begin 1st pass (copy)

Begin 2nd pass (test)

CRC (test) : 1C5EBE66
CRC (copy) : 1C5EBE66

Finished successfully

Track 2

Filename “Mark Farner And Don Brewer – Monumental Funk.flac”

Begin 1st pass (copy)

Begin 2nd pass (test)

CRC (test) : 2B31E83E
CRC (copy) : 2B31E83E

Finished successfully

Track 3

Filename “Mark Farner And Don Brewer – Monumental Funk.flac”

Begin 1st pass (copy)

Begin 2nd pass (test)

CRC (test) : 86D2AC17
CRC (copy) : 86D2AC17

Finished successfully

Track 4

Filename “Mark Farner And Don Brewer – Monumental Funk.flac”

Begin 1st pass (copy)

Begin 2nd pass (test)

CRC (test) : 4038CAEE
CRC (copy) : 4038CAEE

Finished successfully

Track 5

Filename “Mark Farner And Don Brewer – Monumental Funk.flac”

Begin 1st pass (copy)

Begin 2nd pass (test)

CRC (test) : 1915D579
CRC (copy) : 1915D579

Finished successfully

Track 6

Filename “Mark Farner And Don Brewer – Monumental Funk.flac”

Begin 1st pass (copy)

Begin 2nd pass (test)

CRC (test) : 43F1E01B
CRC (copy) : 43F1E01B

Finished successfully

REM GENRE Rock
REM DATE 1974
REM COMMENT EZ CD Audio Converter 7.0.6 [32-bit]
PERFORMER “Mark Farner And Don Brewer”
TITLE “Monumental Funk”
FILE “Mark Farner And Don Brewer – Monumental Funk.flac” WAVE
TRACK 01 AUDIO
TITLE “We Gotta Have Love”
PERFORMER “Mark Farner And Don Brewer”
SONGWRITER “Mark Farner”
INDEX 01 00:00:00
TRACK 02 AUDIO
TITLE “Hey Everybody”
PERFORMER “Mark Farner And Don Brewer”
SONGWRITER “J. Tuttle”
INDEX 01 05:09:69
TRACK 03 AUDIO
TITLE “I’ve Got News For You”
PERFORMER “Mark Farner And Don Brewer”
INDEX 01 08:46:37
TRACK 04 AUDIO
TITLE “Come See About Me”
PERFORMER “Mark Farner And Don Brewer”
INDEX 01 13:29:01
TRACK 05 AUDIO
TITLE “Harlem Shuffle”
PERFORMER “Mark Farner And Don Brewer”
INDEX 01 17:46:22
TRACK 06 AUDIO
TITLE “Love Light”
PERFORMER “Mark Farner And Don Brewer”
INDEX 01 23:05:21

Leave a Reply

Your email address will not be published. Required fields are marked *

This site uses Akismet to reduce spam. Learn how your comment data is processed.