Manowar – Fighting the World




Artist: Manowar
Year: 1987
Genre: Rock
Notes: Discogs
Add. Notes:
Cover incl.: Yes
Encoder: FLAC
Bitrate: ~800 kBit/s (44.1 kHz/16 Bit/s)
Log & Cue incl.: Yes
Size: 210,13 MB
Password: “slam” (without ” “)


All Downloads/Hosters are compatible

Download 1
Turbobit.net
Rapidgator.net
UploadEver.com
KatFile.com
UsersDrive.com
Download 2
Turbobit.net
Rapidgator.net
UploadEver.com
KatFile.com
UsersDrive.com
Download 3
Turbobit.net
Rapidgator.net
UploadEver.com
KatFile.com
UsersDrive.com

Tracklist:

1 - Fighting The World - 3:53
2 - Blow Your Speakers - 3:43
3 - Carry On - 4:18
4 - Violence And Bloodshed - 4:00
5 - Defender - 6:05
6 - Drums Of Doom - 1:14
7 - Holy War - 4:45
8 - Master Of Revenge - 1:34
9 - Black Wind, Fire And Steel - 5:16

EAC-Log, CUE-Sheed & NFO:

Click to open spoiler
Exact Audio Copy V1.1 from 23. June 2015

EAC extraction logfile from 27. November 2015, 16:02

Manowar / Fighting the World

Used drive : ASUS BW-12D1S-U Adapter: 1 ID: 0

Read mode : Secure
Utilize accurate stream : Yes
Defeat audio cache : Yes
Make use of C2 pointers : No

Read offset correction : 667
Overread into Lead-In and Lead-Out : No
Fill up missing offset samples with silence : Yes
Delete leading and trailing silent blocks : No
Null samples used in CRC calculations : Yes
Used interface : Native Win32 interface for Win NT & 2000
Gap handling : Appended to previous track

Used output format : User Defined Encoder
Selected bitrate : 768 kBit/s
Quality : High
Add ID3 tag : No
Command line compressor : D:\Program Files (x86)\Exact Audio Copy\Flac\flac.exe
Additional command line options : -8 -V -T “TITLE=%title%” -T “ARTIST=%artist%” -T “ALBUMARTIST=%albumartist%” -T “ALBUM=%albumtitle%” -T “DATE=%year%” -T “TRACKNUMBER=%tracknr%” -T “TRACKTOTAL=%numtracks%” -T “GENRE=%genre%” -T “COMMENT=%comment%” -T “PERFORMER=%albuminterpret%” -T “COMPOSER=%composer%” %source% -o %dest%

TOC of the extracted CD

Track | Start | Length | Start sector | End sector
———————————————————
1 | 0:00.00 | 3:53.22 | 0 | 17496
2 | 3:53.22 | 3:43.20 | 17497 | 34241
3 | 7:36.42 | 4:18.58 | 34242 | 53649
4 | 11:55.25 | 4:00.42 | 53650 | 71691
5 | 15:55.67 | 6:05.45 | 71692 | 99111
6 | 22:01.37 | 1:14.28 | 99112 | 104689
7 | 23:15.65 | 4:45.42 | 104690 | 126106
8 | 28:01.32 | 1:34.15 | 126107 | 133171
9 | 29:35.47 | 5:16.38 | 133172 | 156909

Track 1

Filename D:\Video&Music&Books\1987 – Fighting the World\01 Fighting the World.wav

Pre-gap length 0:00:02.00

Peak level 76.6 %
Extraction speed 4.2 X
Track quality 100.0 %
Test CRC 9E85A98C
Copy CRC 9E85A98C
Accurately ripped (confidence 13) [90AE9935] (AR v2)
Copy OK

Track 2

Filename D:\Video&Music&Books\1987 – Fighting the World\02 Blow Your Speakers.wav

Pre-gap length 0:00:02.45

Peak level 85.1 %
Extraction speed 4.6 X
Track quality 100.0 %
Test CRC A601C606
Copy CRC A601C606
Accurately ripped (confidence 14) [67D352B0] (AR v2)
Copy OK

Track 3

Filename D:\Video&Music&Books\1987 – Fighting the World\03 Carry On.wav

Pre-gap length 0:00:04.15

Peak level 69.0 %
Extraction speed 5.1 X
Track quality 100.0 %
Test CRC 15422C17
Copy CRC 15422C17
Accurately ripped (confidence 14) [12D7F2C8] (AR v2)
Copy OK

Track 4

Filename D:\Video&Music&Books\1987 – Fighting the World\04 Violence and Bloodshed.wav

Pre-gap length 0:00:05.10

Peak level 92.6 %
Extraction speed 5.4 X
Track quality 100.0 %
Test CRC 05B77459
Copy CRC 05B77459
Accurately ripped (confidence 13) [9C022F12] (AR v2)
Copy OK

Track 5

Filename D:\Video&Music&Books\1987 – Fighting the World\05 Defender.wav

Pre-gap length 0:00:03.55

Peak level 97.0 %
Extraction speed 6.1 X
Track quality 100.0 %
Test CRC C6167135
Copy CRC C6167135
Accurately ripped (confidence 13) [05ABE378] (AR v2)
Copy OK

Track 6

Filename D:\Video&Music&Books\1987 – Fighting the World\06 Drums of Doom.wav

Pre-gap length 0:00:03.62

Peak level 79.9 %
Extraction speed 3.4 X
Track quality 99.8 %
Test CRC 4582F451
Copy CRC 4582F451
Accurately ripped (confidence 13) [D7AE7187] (AR v2)
Copy OK

Track 7

Filename D:\Video&Music&Books\1987 – Fighting the World\07 Holy War.wav

Peak level 77.6 %
Extraction speed 6.4 X
Track quality 100.0 %
Test CRC 9ABB7A89
Copy CRC 9ABB7A89
Accurately ripped (confidence 13) [4001E0A4] (AR v2)
Copy OK

Track 8

Filename D:\Video&Music&Books\1987 – Fighting the World\08 Master of Revenge.wav

Peak level 70.4 %
Extraction speed 5.3 X
Track quality 100.0 %
Test CRC D110E830
Copy CRC D110E830
Accurately ripped (confidence 13) [2D652A0F] (AR v2)
Copy OK

Track 9

Filename D:\Video&Music&Books\1987 – Fighting the World\09 Black Wind, Fire and Steel.wav

Peak level 78.6 %
Extraction speed 6.9 X
Track quality 100.0 %
Test CRC 09A75FAF
Copy CRC 09A75FAF
Accurately ripped (confidence 14) [78C45A24] (AR v2)
Copy OK

All tracks accurately ripped

No errors occurred

End of status report

—- CUETools DB Plugin V2.1.6

[CTDB TOCID: nVWDioPraDJbs80SMY3CqYqk36g-] found
Submit result: nVWDioPraDJbs80SMY3CqYqk36g- has been confirmed
Track | CTDB Status
1 | (288/292) Accurately ripped
2 | (289/292) Accurately ripped
3 | (288/292) Accurately ripped
4 | (288/292) Accurately ripped
5 | (289/292) Accurately ripped
6 | (288/292) Accurately ripped
7 | (286/292) Accurately ripped
8 | (286/292) Accurately ripped
9 | (288/292) Accurately ripped

==== Log checksum C750F2F5C9AA1011C28EB58F849E54C1CA07D8E1659FC3692925E012B5E63D56 ====

REM DATE 1987
REM DISCID 86082C09
REM COMMENT “ExactAudioCopy v1.1”
PERFORMER “Manowar”
TITLE “Fighting the World”
FILE “01 Fighting the World.wav” WAVE
TRACK 01 AUDIO
TITLE “Fighting the World”
PERFORMER “Manowar”
INDEX 01 00:00:00
TRACK 02 AUDIO
TITLE “Blow Your Speakers”
PERFORMER “Manowar”
INDEX 00 03:50:52
FILE “02 Blow Your Speakers.wav” WAVE
INDEX 01 00:00:00
TRACK 03 AUDIO
TITLE “Carry On”
PERFORMER “Manowar”
INDEX 00 03:39:05
FILE “03 Carry On.wav” WAVE
INDEX 01 00:00:00
TRACK 04 AUDIO
TITLE “Violence and Bloodshed”
PERFORMER “Manowar”
INDEX 00 04:13:48
FILE “04 Violence and Bloodshed.wav” WAVE
INDEX 01 00:00:00
TRACK 05 AUDIO
TITLE “Defender”
PERFORMER “Manowar”
INDEX 00 03:56:62
FILE “05 Defender.wav” WAVE
INDEX 01 00:00:00
TRACK 06 AUDIO
TITLE “Drums of Doom”
PERFORMER “Manowar”
INDEX 00 06:01:58
FILE “06 Drums of Doom.wav” WAVE
INDEX 01 00:00:00
FILE “07 Holy War.wav” WAVE
TRACK 07 AUDIO
TITLE “Holy War”
PERFORMER “Manowar”
INDEX 01 00:00:00
FILE “08 Master of Revenge.wav” WAVE
TRACK 08 AUDIO
TITLE “Master of Revenge”
PERFORMER “Manowar”
INDEX 01 00:00:00
FILE “09 Black Wind, Fire and Steel.wav” WAVE
TRACK 09 AUDIO
TITLE “Black Wind, Fire and Steel”
PERFORMER “Manowar”
INDEX 01 00:00:00

Leave a Reply

Your email address will not be published. Required fields are marked *

This site uses Akismet to reduce spam. Learn how your comment data is processed.