Manfred Mann’s Earth Band – Return To The Better (Limited Edition)




Artist: Manfred Mann’s Earth Band
Year: 2015
Genre: Rock
Notes: Discogs
Add. Notes: Limited Edition
Cover incl.: Yes
Encoder: FLAC
Bitrate: ~900 kBit/s (44.1 kHz/16 Bit/s)
Log & Cue incl.: Yes
Size: 492,91 MB
Password: “slam” (without ” “)


All Downloads/Hosters are compatible

Download 1
Turbobit.net
Rapidgator.net
UploadEver.com
KatFile.com
UsersDrive.com
Download 2
Turbobit.net
Rapidgator.net
UploadEver.com
KatFile.com
UsersDrive.com
Download 3
Turbobit.net
Rapidgator.net
UploadEver.com
KatFile.com
UsersDrive.com

Tracklist:

1 - Father Of Day, Father Of Night (Edited) - 3:01
2 - Spirits In The Night - 6:28
3 - Crossfade - 3:32
4 - Visionary Mountains - 5:42
5 - Blinded By The Light - 7:07
6 - Questions - 4:00
7 - Circles - 4:47
8 - Chicago Institute - 5:47
9 - California (Single Edit) - 4:05
10 - Martha's Madmann - 4:52
11 - Don't Kill It Carol - 6:16
12 - Angels At My Gate - 4:50
13 - Lies - 4:36
14 - For You - 5:42
15 - Hello, I Am Your Heart - 5:17

EAC-Log, CUE-Sheed & NFO:

Click to open spoiler
Exact Audio Copy V0.99 prebeta 5 from 4. May 2009

EAC extraction logfile from 20. June 2015, 21:51

Manfred Mann’s Earth Band / Return To The Better

Used drive : ASUS DRW-24B5ST Adapter: 1 ID: 0

Read mode : Secure
Utilize accurate stream : Yes
Defeat audio cache : Yes
Make use of C2 pointers : No

Read offset correction : 6
Overread into Lead-In and Lead-Out : No
Fill up missing offset samples with silence : Yes
Delete leading and trailing silent blocks : No
Null samples used in CRC calculations : Yes
Used interface : Native Win32 interface for Win NT & 2000
Gap handling : Appended to previous track

Used output format : Internal WAV Routines
Sample format : 44.100 Hz; 16 Bit; Stereo

TOC of the extracted CD

Track | Start | Length | Start sector | End sector
———————————————————
1 | 0:00.00 | 3:01.60 | 0 | 13634
2 | 3:01.60 | 6:28.00 | 13635 | 42734
3 | 9:29.60 | 3:32.00 | 42735 | 58634
4 | 13:01.60 | 5:42.00 | 58635 | 84284
5 | 18:43.60 | 7:07.05 | 84285 | 116314
6 | 25:50.65 | 4:00.00 | 116315 | 134314
7 | 29:50.65 | 4:47.00 | 134315 | 155839
8 | 34:37.65 | 5:47.00 | 155840 | 181864
9 | 40:24.65 | 4:05.04 | 181865 | 200243
10 | 44:29.69 | 4:51.15 | 200244 | 222083
11 | 49:21.09 | 6:16.08 | 222084 | 250291
12 | 55:37.17 | 4:50.00 | 250292 | 272041
13 | 60:27.17 | 4:36.12 | 272042 | 292753
14 | 65:03.29 | 5:42.00 | 292754 | 318403
15 | 70:45.29 | 5:17.03 | 318404 | 342181

Track 1

Filename E:\EAC-CD-NEW\01 – Father Of Day, Father Of Night (Edited).wav

Pre-gap length 0:00:02.00

Peak level 97.9 %
Track quality 100.0 %
Test CRC 736A37A4
Copy CRC 736A37A4
Copy OK

Track 2

Filename E:\EAC-CD-NEW\02 – Spirits In The Nigh.wav

Peak level 97.8 %
Track quality 100.0 %
Test CRC 25FB3229
Copy CRC 25FB3229
Copy OK

Track 3

Filename E:\EAC-CD-NEW\03 – Crossfade.wav

Peak level 91.8 %
Track quality 100.0 %
Test CRC 85182A68
Copy CRC 85182A68
Copy OK

Track 4

Filename E:\EAC-CD-NEW\04 – Visionary Mountains.wav

Peak level 97.8 %
Track quality 100.0 %
Test CRC CDEDD00F
Copy CRC CDEDD00F
Copy OK

Track 5

Filename E:\EAC-CD-NEW\05 – Blinded By The Light.wav

Peak level 96.6 %
Track quality 100.0 %
Test CRC B880A38B
Copy CRC B880A38B
Copy OK

Track 6

Filename E:\EAC-CD-NEW\06 – Questions.wav

Peak level 80.0 %
Track quality 100.0 %
Test CRC 57E1AB98
Copy CRC 57E1AB98
Copy OK

Track 7

Filename E:\EAC-CD-NEW\07 – Circles.wav

Peak level 98.1 %
Track quality 100.0 %
Test CRC F883A912
Copy CRC F883A912
Copy OK

Track 8

Filename E:\EAC-CD-NEW\08 – Chicago Institute.wav

Peak level 97.8 %
Track quality 100.0 %
Test CRC 5CD976AE
Copy CRC 5CD976AE
Copy OK

Track 9

Filename E:\EAC-CD-NEW\09 – California (Single Edit).wav

Peak level 98.0 %
Track quality 100.0 %
Test CRC 22295441
Copy CRC 22295441
Copy OK

Track 10

Filename E:\EAC-CD-NEW\10 – Martha’s Madmann.wav

Peak level 98.1 %
Track quality 100.0 %
Test CRC EA9FC90B
Copy CRC EA9FC90B
Copy OK

Track 11

Filename E:\EAC-CD-NEW\11 – Don’t Kill It Carol.wav

Peak level 98.4 %
Track quality 100.0 %
Test CRC 9A6FB985
Copy CRC 9A6FB985
Copy OK

Track 12

Filename E:\EAC-CD-NEW\12 – Angels At My Gate.wav

Peak level 96.6 %
Track quality 100.0 %
Test CRC 06DEE5E3
Copy CRC 06DEE5E3
Copy OK

Track 13

Filename E:\EAC-CD-NEW\13 – Lies.wav

Peak level 97.9 %
Track quality 100.0 %
Test CRC 1F6FBAFD
Copy CRC 1F6FBAFD
Copy OK

Track 14

Filename E:\EAC-CD-NEW\14 – For You.wav

Peak level 96.4 %
Track quality 100.0 %
Test CRC C92420BC
Copy CRC C92420BC
Copy OK

Track 15

Filename E:\EAC-CD-NEW\15 – Hello, I Am Your Heart.wav

Peak level 96.3 %
Track quality 100.0 %
Test CRC 370CCB9B
Copy CRC 370CCB9B
Copy OK

No errors occurred

End of status report

REM GENRE Rock
REM DATE 2015
REM DISCID E211D20F
REM COMMENT “ExactAudioCopy v0.99pb5”
PERFORMER “Manfred Mann’s Earth Band”
TITLE “Return To The Better”
FILE “01 – Father Of Day, Father Of Night (Edited).flac” WAVE
TRACK 01 AUDIO
TITLE “Father Of Day, Father Of Night (Edited)”
PERFORMER “Manfred Mann’s Earth Band”
INDEX 01 00:00:00
FILE “02 – Spirits In The Nigh.flac” WAVE
TRACK 02 AUDIO
TITLE “Spirits In The Nigh”
PERFORMER “Manfred Mann’s Earth Band”
INDEX 01 00:00:00
FILE “03 – Crossfade.flac” WAVE
TRACK 03 AUDIO
TITLE “Crossfade”
PERFORMER “Manfred Mann’s Earth Band”
INDEX 01 00:00:00
FILE “04 – Visionary Mountains.flac” WAVE
TRACK 04 AUDIO
TITLE “Visionary Mountains”
PERFORMER “Manfred Mann’s Earth Band”
INDEX 01 00:00:00
FILE “05 – Blinded By The Light.flac” WAVE
TRACK 05 AUDIO
TITLE “Blinded By The Light”
PERFORMER “Manfred Mann’s Earth Band”
INDEX 01 00:00:00
FILE “06 – Questions.flac” WAVE
TRACK 06 AUDIO
TITLE “Questions”
PERFORMER “Manfred Mann’s Earth Band”
INDEX 01 00:00:00
FILE “07 – Circles.flac” WAVE
TRACK 07 AUDIO
TITLE “Circles”
PERFORMER “Manfred Mann’s Earth Band”
INDEX 01 00:00:00
FILE “08 – Chicago Institute.flac” WAVE
TRACK 08 AUDIO
TITLE “Chicago Institute”
PERFORMER “Manfred Mann’s Earth Band”
INDEX 01 00:00:00
FILE “09 – California (Single Edit).flac” WAVE
TRACK 09 AUDIO
TITLE “California (Single Edit)”
PERFORMER “Manfred Mann’s Earth Band”
INDEX 01 00:00:00
FILE “10 – Martha’s Madmann.flac” WAVE
TRACK 10 AUDIO
TITLE “Martha’s Madmann”
PERFORMER “Manfred Mann’s Earth Band”
INDEX 01 00:00:00
FILE “11 – Don’t Kill It Carol.flac” WAVE
TRACK 11 AUDIO
TITLE “Don’t Kill It Carol”
PERFORMER “Manfred Mann’s Earth Band”
INDEX 01 00:00:00
FILE “12 – Angels At My Gate.flac” WAVE
TRACK 12 AUDIO
TITLE “Angels At My Gate”
PERFORMER “Manfred Mann’s Earth Band”
INDEX 01 00:00:00
FILE “13 – Lies.flac” WAVE
TRACK 13 AUDIO
TITLE “Lies”
PERFORMER “Manfred Mann’s Earth Band”
INDEX 01 00:00:00
FILE “14 – For You.flac” WAVE
TRACK 14 AUDIO
TITLE “For You”
PERFORMER “Manfred Mann’s Earth Band”
INDEX 01 00:00:00
FILE “15 – Hello, I Am Your Heart.flac” WAVE
TRACK 15 AUDIO
TITLE “Hello, I Am Your Heart”
PERFORMER “Manfred Mann’s Earth Band”
INDEX 01 00:00:00

Leave a Reply

Your email address will not be published. Required fields are marked *

This site uses Akismet to reduce spam. Learn how your comment data is processed.