Magnum – The Serpent Rings




No Cover available

Artist: Magnum
Year: 2020
Genre: Rock
Notes: Discogs
Add. Notes:
Watch Songs on: YouTube
Cover incl.: Yes
Encoder: FLAC
Bitrate: ~1000 kBit/s (44.1 kHz/16 Bit/s)
Log & Cue incl.: Yes/Yes
Size: 434,3 MB
Password: “slam” (without ” “)


All Downloads/Hosters are compatible

Download 1
KatFile.com
Turbobit.net
Rapidgator.net
FileFactory.com
Download 2
KatFile.com
Turbobit.net
Rapidgator.net
FileFactory.com

Tracklist:

01. Where Are You Eden?
02. You Can't Run Faster Than Bullets
03. Madman or Messiah
04. The Archway of Tears
05. Not Forgiven
06. The Serpent Rings
07. House of Kings
08. The Great Unknown
09. Man
10. The Last One on Earth
11. Crimson on the White Sand

EAC-Log, CUE-Sheed & NFO:

Click to open spoiler
X Lossless Decoder version 20191004 (152.0)

XLD extraction logfile from 2020-01-09 17:31:19 +0000

Magnum / The Serpent Rings

Used drive : MATSHITA BD-MLT UJ240AF (revision 1.00)
Media type : Pressed CD

Ripper mode : XLD Secure Ripper
Disable audio cache : OK for the drive with a cache less than 1375KiB
Make use of C2 pointers : NO
Read offset correction : 103
Max retry count : 25
Gap status : Analyzed, Appended (except HTOA)

TOC of the extracted CD
Track | Start | Length | Start sector | End sector
———————————————————
1 | 00:00:00 | 05:36:34 | 0 | 25233
2 | 05:36:34 | 05:33:23 | 25234 | 50231
3 | 11:09:57 | 05:17:28 | 50232 | 74034
4 | 16:27:10 | 06:21:29 | 74035 | 102638
5 | 22:48:39 | 05:47:46 | 102639 | 128709
6 | 28:36:10 | 06:46:63 | 128710 | 159222
7 | 35:22:73 | 04:46:47 | 159223 | 180719
8 | 40:09:45 | 05:26:46 | 180720 | 205215
9 | 45:36:16 | 05:26:28 | 205216 | 229693
10 | 51:02:44 | 03:31:14 | 229694 | 245532
11 | 54:33:58 | 04:53:32 | 245533 | 267539

AccurateRip Summary
Disc not found in AccurateRip DB.

All Tracks
Album gain : -10.08 dB
Peak : 0.972137
Statistics
Read error : 0
Jitter error (maybe fixed) : 0
Retry sector count : 0
Damaged sector count : 0

Track 01
Filename : /Users/imac/Working Folder/XLD/Magnum – The Serpent Rings (2020) [FLAC]/01 – Magnum – Where Are You Eden_.flac
/Users/imac/Working Folder/XLD/Magnum – The Serpent Rings (2020) [MP3-320]/01 – Magnum – Where Are You Eden_.mp3
/Users/imac/Working Folder/XLD/Magnum – The Serpent Rings (2020) [MP3-V0]/01 – Magnum – Where Are You Eden_.mp3
/Users/imac/Working Folder/XLD/Magnum – The Serpent Rings (2020) [MP3-V2]/01 – Magnum – Where Are You Eden_.mp3
Pre-gap length : 00:02:00

Track gain : -10.34 dB
Peak : 0.972137
CRC32 hash (test run) : 83345DEC
CRC32 hash : 83345DEC
CRC32 hash (skip zero) : 9F2A47F1
AccurateRip v1 signature : 224EBFB5
AccurateRip v2 signature : D4370270
->Track not present in AccurateRip database.
Statistics
Read error : 0
Jitter error (maybe fixed) : 0
Retry sector count : 0
Damaged sector count : 0

Track 02
Filename : /Users/imac/Working Folder/XLD/Magnum – The Serpent Rings (2020) [FLAC]/02 – Magnum – You Can’t Run Faster Than Bullets.flac
/Users/imac/Working Folder/XLD/Magnum – The Serpent Rings (2020) [MP3-320]/02 – Magnum – You Can’t Run Faster Than Bullets.mp3
/Users/imac/Working Folder/XLD/Magnum – The Serpent Rings (2020) [MP3-V0]/02 – Magnum – You Can’t Run Faster Than Bullets.mp3
/Users/imac/Working Folder/XLD/Magnum – The Serpent Rings (2020) [MP3-V2]/02 – Magnum – You Can’t Run Faster Than Bullets.mp3

Track gain : -10.37 dB
Peak : 0.972137
CRC32 hash (test run) : BAE60ACB
CRC32 hash : BAE60ACB
CRC32 hash (skip zero) : 71522F62
AccurateRip v1 signature : B77D4AF5
AccurateRip v2 signature : B0840063
->Track not present in AccurateRip database.
Statistics
Read error : 0
Jitter error (maybe fixed) : 0
Retry sector count : 0
Damaged sector count : 0

Track 03
Filename : /Users/imac/Working Folder/XLD/Magnum – The Serpent Rings (2020) [FLAC]/03 – Magnum – Madman or Messiah.flac
/Users/imac/Working Folder/XLD/Magnum – The Serpent Rings (2020) [MP3-320]/03 – Magnum – Madman or Messiah.mp3
/Users/imac/Working Folder/XLD/Magnum – The Serpent Rings (2020) [MP3-V0]/03 – Magnum – Madman or Messiah.mp3
/Users/imac/Working Folder/XLD/Magnum – The Serpent Rings (2020) [MP3-V2]/03 – Magnum – Madman or Messiah.mp3

Track gain : -11.02 dB
Peak : 0.972137
CRC32 hash (test run) : 7497376A
CRC32 hash : 7497376A
CRC32 hash (skip zero) : 23045831
AccurateRip v1 signature : E2BB2F2F
AccurateRip v2 signature : 420CACCB
->Track not present in AccurateRip database.
Statistics
Read error : 0
Jitter error (maybe fixed) : 0
Retry sector count : 0
Damaged sector count : 0

Track 04
Filename : /Users/imac/Working Folder/XLD/Magnum – The Serpent Rings (2020) [FLAC]/04 – Magnum – The Archway of Tears.flac
/Users/imac/Working Folder/XLD/Magnum – The Serpent Rings (2020) [MP3-320]/04 – Magnum – The Archway of Tears.mp3
/Users/imac/Working Folder/XLD/Magnum – The Serpent Rings (2020) [MP3-V0]/04 – Magnum – The Archway of Tears.mp3
/Users/imac/Working Folder/XLD/Magnum – The Serpent Rings (2020) [MP3-V2]/04 – Magnum – The Archway of Tears.mp3

Track gain : -9.13 dB
Peak : 0.972137
CRC32 hash (test run) : 75934079
CRC32 hash : 75934079
CRC32 hash (skip zero) : E8B3BB8B
AccurateRip v1 signature : AF22C610
AccurateRip v2 signature : 7923BCA2
->Track not present in AccurateRip database.
Statistics
Read error : 0
Jitter error (maybe fixed) : 0
Retry sector count : 0
Damaged sector count : 0

Track 05
Filename : /Users/imac/Working Folder/XLD/Magnum – The Serpent Rings (2020) [FLAC]/05 – Magnum – Not Forgiven.flac
/Users/imac/Working Folder/XLD/Magnum – The Serpent Rings (2020) [MP3-320]/05 – Magnum – Not Forgiven.mp3
/Users/imac/Working Folder/XLD/Magnum – The Serpent Rings (2020) [MP3-V0]/05 – Magnum – Not Forgiven.mp3
/Users/imac/Working Folder/XLD/Magnum – The Serpent Rings (2020) [MP3-V2]/05 – Magnum – Not Forgiven.mp3

Track gain : -10.50 dB
Peak : 0.972137
CRC32 hash (test run) : A9F92CE3
CRC32 hash : A9F92CE3
CRC32 hash (skip zero) : 3BB56907
AccurateRip v1 signature : 71884CE0
AccurateRip v2 signature : 8FF9FE10
->Track not present in AccurateRip database.
Statistics
Read error : 0
Jitter error (maybe fixed) : 0
Retry sector count : 0
Damaged sector count : 0

Track 06
Filename : /Users/imac/Working Folder/XLD/Magnum – The Serpent Rings (2020) [FLAC]/06 – Magnum – The Serpent Rings.flac
/Users/imac/Working Folder/XLD/Magnum – The Serpent Rings (2020) [MP3-320]/06 – Magnum – The Serpent Rings.mp3
/Users/imac/Working Folder/XLD/Magnum – The Serpent Rings (2020) [MP3-V0]/06 – Magnum – The Serpent Rings.mp3
/Users/imac/Working Folder/XLD/Magnum – The Serpent Rings (2020) [MP3-V2]/06 – Magnum – The Serpent Rings.mp3

Track gain : -9.07 dB
Peak : 0.972137
CRC32 hash (test run) : 55FD02F4
CRC32 hash : 55FD02F4
CRC32 hash (skip zero) : 4FE96885
AccurateRip v1 signature : 471D4E48
AccurateRip v2 signature : 35489ECA
->Track not present in AccurateRip database.
Statistics
Read error : 0
Jitter error (maybe fixed) : 0
Retry sector count : 0
Damaged sector count : 0

Track 07
Filename : /Users/imac/Working Folder/XLD/Magnum – The Serpent Rings (2020) [FLAC]/07 – Magnum – House of Kings.flac
/Users/imac/Working Folder/XLD/Magnum – The Serpent Rings (2020) [MP3-320]/07 – Magnum – House of Kings.mp3
/Users/imac/Working Folder/XLD/Magnum – The Serpent Rings (2020) [MP3-V0]/07 – Magnum – House of Kings.mp3
/Users/imac/Working Folder/XLD/Magnum – The Serpent Rings (2020) [MP3-V2]/07 – Magnum – House of Kings.mp3

Track gain : -10.63 dB
Peak : 0.972137
CRC32 hash (test run) : 05500BD6
CRC32 hash : 05500BD6
CRC32 hash (skip zero) : 584AD2EE
AccurateRip v1 signature : 4BD53BD8
AccurateRip v2 signature : 95FE1137
->Track not present in AccurateRip database.
Statistics
Read error : 0
Jitter error (maybe fixed) : 0
Retry sector count : 0
Damaged sector count : 0

Track 08
Filename : /Users/imac/Working Folder/XLD/Magnum – The Serpent Rings (2020) [FLAC]/08 – Magnum – The Great Unknown.flac
/Users/imac/Working Folder/XLD/Magnum – The Serpent Rings (2020) [MP3-320]/08 – Magnum – The Great Unknown.mp3
/Users/imac/Working Folder/XLD/Magnum – The Serpent Rings (2020) [MP3-V0]/08 – Magnum – The Great Unknown.mp3
/Users/imac/Working Folder/XLD/Magnum – The Serpent Rings (2020) [MP3-V2]/08 – Magnum – The Great Unknown.mp3

Track gain : -9.57 dB
Peak : 0.972137
CRC32 hash (test run) : AEDB93A4
CRC32 hash : AEDB93A4
CRC32 hash (skip zero) : 98748E53
AccurateRip v1 signature : 2FA3AF66
AccurateRip v2 signature : 18A99209
->Track not present in AccurateRip database.
Statistics
Read error : 0
Jitter error (maybe fixed) : 0
Retry sector count : 0
Damaged sector count : 0

Track 09
Filename : /Users/imac/Working Folder/XLD/Magnum – The Serpent Rings (2020) [FLAC]/09 – Magnum – Man.flac
/Users/imac/Working Folder/XLD/Magnum – The Serpent Rings (2020) [MP3-320]/09 – Magnum – Man.mp3
/Users/imac/Working Folder/XLD/Magnum – The Serpent Rings (2020) [MP3-V0]/09 – Magnum – Man.mp3
/Users/imac/Working Folder/XLD/Magnum – The Serpent Rings (2020) [MP3-V2]/09 – Magnum – Man.mp3

Track gain : -9.85 dB
Peak : 0.972137
CRC32 hash (test run) : 9644816C
CRC32 hash : 9644816C
CRC32 hash (skip zero) : 423000F2
AccurateRip v1 signature : B365E2CA
AccurateRip v2 signature : E0760E61
->Track not present in AccurateRip database.
Statistics
Read error : 0
Jitter error (maybe fixed) : 0
Retry sector count : 0
Damaged sector count : 0

Track 10
Filename : /Users/imac/Working Folder/XLD/Magnum – The Serpent Rings (2020) [FLAC]/10 – Magnum – The Last One On Earth.flac
/Users/imac/Working Folder/XLD/Magnum – The Serpent Rings (2020) [MP3-320]/10 – Magnum – The Last One On Earth.mp3
/Users/imac/Working Folder/XLD/Magnum – The Serpent Rings (2020) [MP3-V0]/10 – Magnum – The Last One On Earth.mp3
/Users/imac/Working Folder/XLD/Magnum – The Serpent Rings (2020) [MP3-V2]/10 – Magnum – The Last One On Earth.mp3

Track gain : -9.68 dB
Peak : 0.972137
CRC32 hash (test run) : 2FCCB225
CRC32 hash : 2FCCB225
CRC32 hash (skip zero) : 0299BEB4
AccurateRip v1 signature : 84F8AF07
AccurateRip v2 signature : B620A340
->Track not present in AccurateRip database.
Statistics
Read error : 0
Jitter error (maybe fixed) : 0
Retry sector count : 0
Damaged sector count : 0

Track 11
Filename : /Users/imac/Working Folder/XLD/Magnum – The Serpent Rings (2020) [FLAC]/11 – Magnum – Crimson On The White Sand.flac
/Users/imac/Working Folder/XLD/Magnum – The Serpent Rings (2020) [MP3-320]/11 – Magnum – Crimson On The White Sand.mp3
/Users/imac/Working Folder/XLD/Magnum – The Serpent Rings (2020) [MP3-V0]/11 – Magnum – Crimson On The White Sand.mp3
/Users/imac/Working Folder/XLD/Magnum – The Serpent Rings (2020) [MP3-V2]/11 – Magnum – Crimson On The White Sand.mp3

Track gain : -10.23 dB
Peak : 0.972137
CRC32 hash (test run) : FD2F0204
CRC32 hash : FD2F0204
CRC32 hash (skip zero) : 56421370
AccurateRip v1 signature : CF73B17C
AccurateRip v2 signature : 795ED9D2
->Track not present in AccurateRip database.
Statistics
Read error : 0
Jitter error (maybe fixed) : 0
Retry sector count : 0
Damaged sector count : 0

No errors occurred

End of status report

—–BEGIN XLD SIGNATURE—–
FZA5KfPX9ilbYBDaslhDocjMW2ZFFhIuRKDyAjcCKNXs9Iy0M2OWnt9tPHwhBlYgR08eM_leM4mCkxmi_..yw.GZxEF7p5lqYRltqNa
—–END XLD SIGNATURE—–

TITLE “The Serpent Rings”
PERFORMER “Magnum”
REM GENRE “Rock”
REM DATE “2020”
REM DISCNUMBER 1
REM TOTALDISCS 1
REM DISCID 970DEF0B
REM REPLAYGAIN_ALBUM_GAIN -10.08 dB
REM REPLAYGAIN_ALBUM_PEAK 0.972137
FILE “01 – Magnum – Where Are You Eden_.flac” WAVE
TRACK 01 AUDIO
TITLE “Where Are You Eden?”
PERFORMER “Magnum”
SONGWRITER “A. Clarkin”
ISRC DEA451904940
REM REPLAYGAIN_TRACK_GAIN -10.34 dB
REM REPLAYGAIN_TRACK_PEAK 0.972137
INDEX 01 00:00:00
FILE “02 – Magnum – You Can’t Run Faster Than Bullets.flac” WAVE
TRACK 02 AUDIO
TITLE “You Can’t Run Faster Than Bullets”
PERFORMER “Magnum”
SONGWRITER “A. Clarkin”
ISRC DEA451904950
REM REPLAYGAIN_TRACK_GAIN -10.37 dB
REM REPLAYGAIN_TRACK_PEAK 0.972137
INDEX 01 00:00:00
FILE “03 – Magnum – Madman or Messiah.flac” WAVE
TRACK 03 AUDIO
TITLE “Madman or Messiah”
PERFORMER “Magnum”
SONGWRITER “A. Clarkin”
ISRC DEA451904960
REM REPLAYGAIN_TRACK_GAIN -11.02 dB
REM REPLAYGAIN_TRACK_PEAK 0.972137
INDEX 01 00:00:00
FILE “04 – Magnum – The Archway of Tears.flac” WAVE
TRACK 04 AUDIO
TITLE “The Archway of Tears”
PERFORMER “Magnum”
SONGWRITER “A. Clarkin”
ISRC DEA451904970
REM REPLAYGAIN_TRACK_GAIN -9.13 dB
REM REPLAYGAIN_TRACK_PEAK 0.972137
INDEX 01 00:00:00
FILE “05 – Magnum – Not Forgiven.flac” WAVE
TRACK 05 AUDIO
TITLE “Not Forgiven”
PERFORMER “Magnum”
SONGWRITER “A. Clarkin”
ISRC DEA451904980
REM REPLAYGAIN_TRACK_GAIN -10.50 dB
REM REPLAYGAIN_TRACK_PEAK 0.972137
INDEX 01 00:00:00
FILE “06 – Magnum – The Serpent Rings.flac” WAVE
TRACK 06 AUDIO
TITLE “The Serpent Rings”
PERFORMER “Magnum”
SONGWRITER “A. Clarkin”
ISRC DEA451904990
REM REPLAYGAIN_TRACK_GAIN -9.07 dB
REM REPLAYGAIN_TRACK_PEAK 0.972137
INDEX 01 00:00:00
FILE “07 – Magnum – House of Kings.flac” WAVE
TRACK 07 AUDIO
TITLE “House of Kings”
PERFORMER “Magnum”
SONGWRITER “A. Clarkin”
ISRC DEA451905000
REM REPLAYGAIN_TRACK_GAIN -10.63 dB
REM REPLAYGAIN_TRACK_PEAK 0.972137
INDEX 01 00:00:00
FILE “08 – Magnum – The Great Unknown.flac” WAVE
TRACK 08 AUDIO
TITLE “The Great Unknown”
PERFORMER “Magnum”
SONGWRITER “A. Clarkin”
ISRC DEA451905010
REM REPLAYGAIN_TRACK_GAIN -9.57 dB
REM REPLAYGAIN_TRACK_PEAK 0.972137
INDEX 01 00:00:00
FILE “09 – Magnum – Man.flac” WAVE
TRACK 09 AUDIO
TITLE “Man”
PERFORMER “Magnum”
SONGWRITER “A. Clarkin”
ISRC DEA451905020
REM REPLAYGAIN_TRACK_GAIN -9.85 dB
REM REPLAYGAIN_TRACK_PEAK 0.972137
INDEX 01 00:00:00
FILE “10 – Magnum – The Last One On Earth.flac” WAVE
TRACK 10 AUDIO
TITLE “The Last One On Earth”
PERFORMER “Magnum”
SONGWRITER “A. Clarkin”
ISRC DEA451905030
REM REPLAYGAIN_TRACK_GAIN -9.68 dB
REM REPLAYGAIN_TRACK_PEAK 0.972137
INDEX 01 00:00:00
FILE “11 – Magnum – Crimson On The White Sand.flac” WAVE
TRACK 11 AUDIO
TITLE “Crimson On The White Sand”
PERFORMER “Magnum”
SONGWRITER “A. Clarkin”
ISRC DEA451905040
REM REPLAYGAIN_TRACK_GAIN -10.23 dB
REM REPLAYGAIN_TRACK_PEAK 0.972137
INDEX 01 00:00:00


Leave a Reply

Your email address will not be published. Required fields are marked *

Enter the text from the image below
 

This site uses Akismet to reduce spam. Learn how your comment data is processed.