Madness – Wonderful




Artist: Madness
Year: 1999
Genre: Ska
Add. Notes:
Cover incl.: Yes
Encoder: FLAC
Bitrate: ~1000 kBit/s (44.1 kHz/16 Bit/s)
Log & Cue incl.: Yes
Size: 293,91 MB
Password: “slam” (without ” “)


All Downloads/Hosters are compatible

Download 1
Turbobit.net
Rapidgator.net
UploadByte.com
UploadEver.com
JustUpload.io
Download 2
Turbobit.net
Rapidgator.net
UploadByte.com
UploadEver.com
JustUpload.io
Download 3
Turbobit.net
Rapidgator.net
UploadByte.com
UploadEver.com
JustUpload.io

Tracklist:

1 - Lovestruck - 3:50
2 - Johnny The Horse - 3:19
3 - The Communicator - 3:20
4 - 4am - 3:50
5 - The Wizard - 3:27
6 - Drip Fed Fred - 4:30
7 - Going To The Top - 3:56
8 - Elysium - 3:52
9 - Saturday Night Sunday Morning - 4:14
10 - If I Didn't Care - 4:25
11 - No Money - 3:14

EAC-Log, CUE-Sheed & NFO:

Click to open spoiler
Exact Audio Copy V0.99 prebeta 4 from 23. January 2008

Отчёт EAC об извлечении, выполненном 18. марта 2008, 14:13

Madness / Wonderful

Дисковод: Optiarc DVD RW AD-7173S Adapter: 3 ID: 0

Режим чтения : Достоверность
Использование точного потока : Да
Отключение кэша аудио : Да
Использование указателей C2 : Нет

Коррекция смещения при чтении : 48
Способность читать области Lead-in и Lead-out : Нет
Заполнение пропущенных сэмплов тишиной : Да
Удаление блоков с тишиной в начале и конце : Нет
При вычислениях CRC использовались нулевые сэмплы : Да
Интерфейс : Установленный внешний ASPI-интерфейс

Выходной формат : Пользовательский кодировщик
Выбранный битрейт : 320 kBit/s
Качество : Высокий
Добавление ID3-тэга : Нет
Утилита сжатия : C:\Program Files\Exact Audio Copy\FLAC\flac.exe
Дополнительные параметры : -T “artist=%a” -T “title=%t” -T “album=%g” -T “date=%y” -T “tracknumber=%n” -T “genre=%m” -5 %s

TOC извлечённого CD

Трек | Старт | Длительность | Начальный сектор | Конечный сектор
———————————————————————
1 | 0:00.00 | 3:50.32 | 0 | 17281
2 | 3:50.32 | 3:19.73 | 17282 | 32279
3 | 7:10.30 | 3:20.05 | 32280 | 47284
4 | 10:30.35 | 3:50.60 | 47285 | 64594
5 | 14:21.20 | 3:27.50 | 64595 | 80169
6 | 17:48.70 | 4:30.47 | 80170 | 100466
7 | 22:19.42 | 3:56.15 | 100467 | 118181
8 | 26:15.57 | 3:52.68 | 118182 | 135649
9 | 30:08.50 | 4:14.70 | 135650 | 154769
10 | 34:23.45 | 4:25.37 | 154770 | 174681
11 | 38:49.07 | 3:14.10 | 174682 | 189241

Характеристики диапазона извлечения и сообщения об ошибках

Выбранный диапазон

Имя файла D:\01 – Музыка\01 – LOSSLESS\Madness (FLAC)\Madness – Wonderful.wav

Пиковый уровень 100.0 %
Качество диапазона 100.0 %
CRC копии 69BB3DA4
Копирование… OK

Ошибок не произошло

AccurateRip: сводка

Трек 1 точное извлечение (доверие 6) [162E282A]
Трек 2 точное извлечение (доверие 6) [19DF7865]
Трек 3 точное извлечение (доверие 6) [65E3B3D8]
Трек 4 точное извлечение (доверие 6) [49012183]
Трек 5 точное извлечение (доверие 6) [1E43B2A2]
Трек 6 точное извлечение (доверие 6) [23FB73D3]
Трек 7 точное извлечение (доверие 6) [38FAE8EC]
Трек 8 точное извлечение (доверие 6) [2D6B9988]
Трек 9 точное извлечение (доверие 6) [F500EAAD]
Трек 10 точное извлечение (доверие 6) [E7D0EF5A]
Трек 11 точное извлечение (доверие 6) [316FFFF0]

Все треки извлечены точно

Конец отчёта

REM GENRE Ska
REM DATE 1999
REM DISCID 7309DB0B
REM COMMENT “ExactAudioCopy v0.99pb4”
PERFORMER “Madness”
TITLE “Wonderful”
FILE “Madness – Wonderful.flac” WAVE
TRACK 01 AUDIO
TITLE “Lovestruck”
PERFORMER “Madness”
INDEX 01 00:00:00
TRACK 02 AUDIO
TITLE “Johnny The Horse”
PERFORMER “Madness”
INDEX 01 03:50:32
TRACK 03 AUDIO
TITLE “The Communicator”
PERFORMER “Madness”
INDEX 01 07:10:30
TRACK 04 AUDIO
TITLE “4am”
PERFORMER “Madness”
INDEX 01 10:30:35
TRACK 05 AUDIO
TITLE “The Wizard”
PERFORMER “Madness”
INDEX 01 14:21:20
TRACK 06 AUDIO
TITLE “Drip Fed Fred”
PERFORMER “Madness”
INDEX 01 17:48:70
TRACK 07 AUDIO
TITLE “Going To The Top”
PERFORMER “Madness”
INDEX 01 22:19:42
TRACK 08 AUDIO
TITLE “Elysium”
PERFORMER “Madness”
INDEX 01 26:15:57
TRACK 09 AUDIO
TITLE “Saturday Night Sunday Morning”
PERFORMER “Madness”
INDEX 00 30:08:42
INDEX 01 30:08:50
TRACK 10 AUDIO
TITLE “If I Didn’t Care”
PERFORMER “Madness”
INDEX 01 34:23:45
TRACK 11 AUDIO
TITLE “No Money”
PERFORMER “Madness”
INDEX 01 38:49:07

Leave a Reply

Your email address will not be published. Required fields are marked *

This site uses Akismet to reduce spam. Learn how your comment data is processed.