Madness – The Rise & Fall




Artist: Madness
Year: 1982/1989
Genre: Ska
Notes: Discogs
Add. Notes:
Cover incl.: No
Encoder: FLAC
Bitrate: ~900 kBit/s (44.1 kHz/16 Bit/s)
Log & Cue incl.: Yes
Size: 274,07 MB
Password: “slam” (without ” “)


All Downloads/Hosters are compatible

Download 1
Turbobit.net
Rapidgator.net
KatFile.com
UploadRar.com
Download 2
Turbobit.net
Rapidgator.net
KatFile.com
UploadRar.com

Tracklist:

1 - Rise And Fall - 3:16
2 - Tomorrow's (Just Another Day) - 3:10
3 - Blue Skinned Beast - 3:22
4 - Primrose Hill - 3:36
5 - Mr Speaker Gets The Word - 3:00
6 - Sunday Morning - 4:03
7 - Our House - 3:23
8 - Tiptoes - 3:30
9 - New Delhi - 3:41
10 - That Face - 3:40
11 - Calling Cards - 2:19
12 - Are You Coming (With Me) - 3:17
13 - Madness (Is All In The Mind) - 2:53

EAC-Log, CUE-Sheed & NFO:

Click to open spoiler
Exact Audio Copy V0.99 prebeta 4 from 23. January 2008

Отчёт EAC об извлечении, выполненном 18. марта 2008, 10:55

Madness / The Rise and Fall

Дисковод: Optiarc DVD RW AD-7173S Adapter: 3 ID: 0

Режим чтения : Достоверность
Использование точного потока : Да
Отключение кэша аудио : Да
Использование указателей C2 : Нет

Коррекция смещения при чтении : 48
Способность читать области Lead-in и Lead-out : Нет
Заполнение пропущенных сэмплов тишиной : Да
Удаление блоков с тишиной в начале и конце : Нет
При вычислениях CRC использовались нулевые сэмплы : Да
Интерфейс : Встроенный Win32-интерфейс для Win NT/2000

Выходной формат : Пользовательский кодировщик
Выбранный битрейт : 320 kBit/s
Качество : Высокий
Добавление ID3-тэга : Нет
Утилита сжатия : C:\Program Files\Exact Audio Copy\FLAC\flac.exe
Дополнительные параметры : -T “artist=%a” -T “title=%t” -T “album=%g” -T “date=%y” -T “tracknumber=%n” -T “genre=%m” -5 %s

TOC извлечённого CD

Трек | Старт | Длительность | Начальный сектор | Конечный сектор
———————————————————————
1 | 0:00.33 | 3:16.55 | 33 | 14787
2 | 3:17.13 | 3:10.62 | 14788 | 29099
3 | 6:28.00 | 3:22.60 | 29100 | 44309
4 | 9:50.60 | 3:36.35 | 44310 | 60544
5 | 13:27.20 | 3:00.73 | 60545 | 74117
6 | 16:28.18 | 4:03.20 | 74118 | 92362
7 | 20:31.38 | 3:23.05 | 92363 | 107592
8 | 23:54.43 | 3:30.07 | 107593 | 123349
9 | 27:24.50 | 3:41.13 | 123350 | 139937
10 | 31:05.63 | 3:40.10 | 139938 | 156447
11 | 34:45.73 | 2:19.57 | 156448 | 166929
12 | 37:05.55 | 3:17.00 | 166930 | 181704
13 | 40:22.55 | 2:53.03 | 181705 | 194682

Характеристики диапазона извлечения и сообщения об ошибках

Выбранный диапазон

Имя файла D:\01 – Музыка\01 – LOSSLESS\Madness (FLAC)\Madness – The Rise and Fall.wav

Пиковый уровень 99.4 %
Качество диапазона 100.0 %
CRC копии 4930D448
Копирование… OK

Ошибок не произошло

AccurateRip: сводка

Трек 1 нет в базе данных
Трек 2 нет в базе данных
Трек 3 нет в базе данных
Трек 4 нет в базе данных
Трек 5 нет в базе данных
Трек 6 нет в базе данных
Трек 7 нет в базе данных
Трек 8 нет в базе данных
Трек 9 нет в базе данных
Трек 10 нет в базе данных
Трек 11 нет в базе данных
Трек 12 нет в базе данных
Трек 13 нет в базе данных

Ни одного трека нет в базе AccurateRip

Конец отчёта

REM GENRE Ska
REM DATE 1982
REM DISCID BC0A230D
REM COMMENT “ExactAudioCopy v0.99pb4”
PERFORMER “Madness”
TITLE “The Rise and Fall”
FILE “Madness – The Rise and Fall.flac” WAVE
TRACK 01 AUDIO
TITLE “Rise and Fall”
PERFORMER “Madness”
INDEX 00 00:00:00
INDEX 01 00:00:33
TRACK 02 AUDIO
TITLE “Tomorrow’s Just Another Day”
PERFORMER “Madness”
INDEX 01 03:17:13
TRACK 03 AUDIO
TITLE “Blue Skinned Beast”
PERFORMER “Madness”
INDEX 01 06:28:00
TRACK 04 AUDIO
TITLE “Primrose Hill”
PERFORMER “Madness”
INDEX 01 09:50:60
TRACK 05 AUDIO
TITLE “Mr Speaker Gets The Word”
PERFORMER “Madness”
INDEX 01 13:27:20
TRACK 06 AUDIO
TITLE “Sunday Morning”
PERFORMER “Madness”
INDEX 01 16:28:18
TRACK 07 AUDIO
TITLE “Our House”
PERFORMER “Madness”
INDEX 01 20:31:38
TRACK 08 AUDIO
TITLE “Tiptoes”
PERFORMER “Madness”
INDEX 01 23:54:43
TRACK 09 AUDIO
TITLE “New Delhi”
PERFORMER “Madness”
INDEX 01 27:24:50
TRACK 10 AUDIO
TITLE “That Face”
PERFORMER “Madness”
INDEX 01 31:05:63
TRACK 11 AUDIO
TITLE “Calling Cards”
PERFORMER “Madness”
INDEX 01 34:45:73
TRACK 12 AUDIO
TITLE “Are You Coming (With Me)”
PERFORMER “Madness”
INDEX 01 37:05:55
TRACK 13 AUDIO
TITLE “Madness (it’s All in the Mind)”
PERFORMER “Madness”
INDEX 01 40:22:55


Leave a Reply

Your email address will not be published. Required fields are marked *

This site uses Akismet to reduce spam. Learn how your comment data is processed.