Madness – The Dangermen Sessions Volume One




Artist: Madness
Year: 2005
Genre: Ska
Notes: Discogs
Add. Notes:
Cover incl.: No
Encoder: FLAC
Bitrate: ~900 kBit/s (44.1 kHz/16 Bit/s)
Log & Cue incl.: Yes
Size: 242,08 MB
Password: “slam” (without ” “)


All Downloads/Hosters are compatible

Download 1
Turbobit.net
Rapidgator.net
KatFile.com
UploadRar.com
Download 2
Turbobit.net
Rapidgator.net
KatFile.com
UploadRar.com
Download 3
Turbobit.net
Rapidgator.net
KatFile.com
UploadRar.com

Tracklist:

1 - This Is Where - 0:30
2 - Girl Why Don't You? - 3:05
3 - Shame & Scandal - 2:53
4 - I Chase The Devil AKA Ironshirt - 3:20
5 - Taller Than You Are - 2:27
6 - You Keep Me Hanging On - 3:10
7 - Dangermen AKA High Wire - 2:42
8 - Israelites - 3:03
9 - John Jones - 3:28
10 - Lola - 3:21
11 - You'll Lose A Good Thing - 2:42
12 - Rain - 2:55
13 - So Much Trouble In The World - 3:44

EAC-Log, CUE-Sheed & NFO:

Click to open spoiler
Exact Audio Copy V0.99 prebeta 4 from 23. January 2008

Отчёт EAC об извлечении, выполненном 18. марта 2008, 13:35

Madness / The Dangerman Sessions Volume One

Дисковод: Optiarc DVD RW AD-7173S Adapter: 3 ID: 0

Режим чтения : Достоверность
Использование точного потока : Да
Отключение кэша аудио : Да
Использование указателей C2 : Нет

Коррекция смещения при чтении : 48
Способность читать области Lead-in и Lead-out : Нет
Заполнение пропущенных сэмплов тишиной : Да
Удаление блоков с тишиной в начале и конце : Нет
При вычислениях CRC использовались нулевые сэмплы : Да
Интерфейс : Установленный внешний ASPI-интерфейс

Выходной формат : Пользовательский кодировщик
Выбранный битрейт : 320 kBit/s
Качество : Высокий
Добавление ID3-тэга : Нет
Утилита сжатия : C:\Program Files\Exact Audio Copy\FLAC\flac.exe
Дополнительные параметры : -T “artist=%a” -T “title=%t” -T “album=%g” -T “date=%y” -T “tracknumber=%n” -T “genre=%m” -5 %s

TOC извлечённого CD

Трек | Старт | Длительность | Начальный сектор | Конечный сектор
———————————————————————
1 | 0:00.00 | 0:30.52 | 0 | 2301
2 | 0:30.52 | 3:05.05 | 2302 | 16181
3 | 3:35.57 | 2:53.12 | 16182 | 29168
4 | 6:28.69 | 3:20.51 | 29169 | 44219
5 | 9:49.45 | 2:27.08 | 44220 | 55252
6 | 12:16.53 | 3:10.13 | 55253 | 69515
7 | 15:26.66 | 2:42.72 | 69516 | 81737
8 | 18:09.63 | 3:03.19 | 81738 | 95481
9 | 21:13.07 | 3:28.24 | 95482 | 111105
10 | 24:41.31 | 3:21.38 | 111106 | 126218
11 | 28:02.69 | 2:42.68 | 126219 | 138436
12 | 30:45.62 | 2:55.10 | 138437 | 151571
13 | 33:40.72 | 3:44.71 | 151572 | 168442

Характеристики диапазона извлечения и сообщения об ошибках

Выбранный диапазон

Имя файла D:\01 – Музыка\01 – LOSSLESS\Madness (FLAC)\Madness – The Dangerman Sessions.wav

Пиковый уровень 100.0 %
Качество диапазона 100.0 %
CRC копии 3CDBBE73
Копирование… OK

Ошибок не произошло

AccurateRip: сводка

Трек 1 точное извлечение (доверие 7) [57C84D2F]
Трек 2 точное извлечение (доверие 7) [C579A209]
Трек 3 точное извлечение (доверие 7) [0A867488]
Трек 4 точное извлечение (доверие 7) [27F69BCC]
Трек 5 точное извлечение (доверие 7) [1A26CCE9]
Трек 6 точное извлечение (доверие 7) [CE044733]
Трек 7 точное извлечение (доверие 7) [C70A144F]
Трек 8 точное извлечение (доверие 7) [F7769C13]
Трек 9 точное извлечение (доверие 7) [236424E8]
Трек 10 точное извлечение (доверие 7) [48870223]
Трек 11 точное извлечение (доверие 7) [DE767FEE]
Трек 12 точное извлечение (доверие 7) [03AB08E2]
Трек 13 точное извлечение (доверие 7) [3DACEED0]

Все треки извлечены точно

Конец отчёта

REM GENRE Ska
REM DATE 2005
REM DISCID A808C50D
REM COMMENT “ExactAudioCopy v0.99pb4”
PERFORMER “Madness”
TITLE “The Dangerman Sessions Volume One”
FILE “Madness – The Dangerman Sessions.flac” WAVE
TRACK 01 AUDIO
TITLE “ThisIs Where”
PERFORMER “Madness”
INDEX 01 00:00:00
TRACK 02 AUDIO
TITLE “Girl Why Don’t You”
PERFORMER “Madness”
INDEX 01 00:30:52
TRACK 03 AUDIO
TITLE “Shame and Scandal”
PERFORMER “Madness”
INDEX 01 03:35:57
TRACK 04 AUDIO
TITLE “I Chase The Devil AKA Ironshirt”
PERFORMER “Madness”
INDEX 00 06:28:43
INDEX 01 06:28:69
TRACK 05 AUDIO
TITLE “Taller Than You”
PERFORMER “Madness”
INDEX 01 09:49:45
TRACK 06 AUDIO
TITLE “You Keep Me Hanging On”
PERFORMER “Madness”
INDEX 01 12:16:53
TRACK 07 AUDIO
TITLE “Dangerman AKA High Wire”
PERFORMER “Madness”
INDEX 00 15:26:20
INDEX 01 15:26:66
TRACK 08 AUDIO
TITLE “Israelites”
PERFORMER “Madness”
INDEX 00 18:09:51
INDEX 01 18:09:63
TRACK 09 AUDIO
TITLE “John Jones”
PERFORMER “Madness”
INDEX 00 21:12:67
INDEX 01 21:13:07
TRACK 10 AUDIO
TITLE “Lola”
PERFORMER “Madness”
INDEX 01 24:41:31
TRACK 11 AUDIO
TITLE “You’ll Lose A Good Thing”
PERFORMER “Madness”
INDEX 00 28:02:51
INDEX 01 28:02:69
TRACK 12 AUDIO
TITLE “Rain”
PERFORMER “Madness”
INDEX 01 30:45:62
TRACK 13 AUDIO
TITLE “So Much Trouble in The World”
PERFORMER “Madness”
INDEX 01 33:40:72


Leave a Reply

Your email address will not be published. Required fields are marked *

This site uses Akismet to reduce spam. Learn how your comment data is processed.