Madness – One Step Beyond…




Artist: Madness
Year: 1979/1989
Genre: Ska
Notes: Discogs
Add. Notes:
Cover incl.: No
Encoder: FLAC
Bitrate: ~1000 kBit/s (44.1 kHz/16 Bit/s)
Log & Cue incl.: Yes
Size: 269,56 MB
Password: “slam” (without ” “)


All Downloads/Hosters are compatible

Download 1
Turbobit.net
Rapidgator.net
KatFile.com
UploadRar.com
Download 2
Turbobit.net
Rapidgator.net
KatFile.com
UploadRar.com
Download 3
Turbobit.net
Rapidgator.net
KatFile.com
UploadRar.com

Tracklist:

1 - One Step Beyond - 2:18
2 - My Girl - 2:44
3 - Night Boat To Cairo - 3:31
4 - Believe Me - 2:28
5 - Land Of Hope And Glory - 2:57
6 - The Prince - 3:18
7 - Tarzan's Nuts - 2:24
8 - In The Middle Of The Night - 3:01
9 - Bed & Breakfast Man - 2:33
10 - Razor Blade Alley - 2:42
11 - Swan Lake - 2:36
12 - Rockin' In A♭ - 2:29
13 - Mummy's Boy - 2:23
14 - Madness - 2:38
15 - Chipmunks Are Go! - 0:51

EAC-Log, CUE-Sheed & NFO:

Click to open spoiler
Exact Audio Copy V0.99 prebeta 4 from 23. January 2008

Отчёт EAC об извлечении, выполненном 18. марта 2008, 9:59

Madness / One Step Beyond…

Дисковод: Optiarc DVD RW AD-7173S Adapter: 3 ID: 0

Режим чтения : Достоверность
Использование точного потока : Да
Отключение кэша аудио : Да
Использование указателей C2 : Нет

Коррекция смещения при чтении : 48
Способность читать области Lead-in и Lead-out : Нет
Заполнение пропущенных сэмплов тишиной : Да
Удаление блоков с тишиной в начале и конце : Нет
При вычислениях CRC использовались нулевые сэмплы : Да
Интерфейс : Встроенный Win32-интерфейс для Win NT/2000

Выходной формат : Пользовательский кодировщик
Выбранный битрейт : 320 kBit/s
Качество : Высокий
Добавление ID3-тэга : Нет
Утилита сжатия : C:\Program Files\Exact Audio Copy\FLAC\flac.exe
Дополнительные параметры : -T “artist=%a” -T “title=%t” -T “album=%g” -T “date=%y” -T “tracknumber=%n” -T “genre=%m” -5 %s

TOC извлечённого CD

Трек | Старт | Длительность | Начальный сектор | Конечный сектор
———————————————————————
1 | 0:00.33 | 2:18.00 | 33 | 10382
2 | 2:18.33 | 2:44.45 | 10383 | 22727
3 | 5:03.03 | 3:31.35 | 22728 | 38587
4 | 8:34.38 | 2:28.55 | 38588 | 49742
5 | 11:03.18 | 2:57.65 | 49743 | 63082
6 | 14:01.08 | 3:18.62 | 63083 | 77994
7 | 17:19.70 | 2:24.53 | 77995 | 88847
8 | 19:44.48 | 3:01.52 | 88848 | 102474
9 | 22:46.25 | 2:33.03 | 102475 | 113952
10 | 25:19.28 | 2:42.20 | 113953 | 126122
11 | 28:01.48 | 2:36.00 | 126123 | 137822
12 | 30:37.48 | 2:29.30 | 137823 | 149027
13 | 33:07.03 | 2:23.62 | 149028 | 159814
14 | 35:30.65 | 2:38.15 | 159815 | 171679
15 | 38:09.05 | 0:51.45 | 171680 | 175549

Характеристики диапазона извлечения и сообщения об ошибках

Выбранный диапазон

Имя файла D:\01 – Музыка\01 – LOSSLESS\Madness (FLAC)\Madness – One Step Beyond….wav

Подозрительная позиция 0:07:50 – 0:08:01
Подозрительная позиция 0:08:03 – 0:08:09
Подозрительная позиция 0:08:12
Подозрительная позиция 0:08:21
Подозрительная позиция 0:08:25 – 0:08:26
Подозрительная позиция 0:08:47

Пиковый уровень 99.0 %
Качество диапазона 98.4 %
CRC копии 841B2697
Копирование завершено

Были ошибки

AccurateRip: сводка

Трек 1 точное извлечение (доверие 11) [E5A4C566]
Трек 2 точное извлечение (доверие 10) [706CE458]
Трек 3 точность не определена (достоверность 11) [13BA0124], AccurateRip вернул [BC48B803]
Трек 4 точность не определена (достоверность 11) [839FB3CB], AccurateRip вернул [F1FAACB6]
Трек 5 точное извлечение (доверие 11) [02E622EE]
Трек 6 точное извлечение (доверие 11) [537C7526]
Трек 7 точное извлечение (доверие 11) [3B65A316]
Трек 8 точное извлечение (доверие 11) [B731E1C7]
Трек 9 точное извлечение (доверие 11) [B61E3AD3]
Трек 10 точное извлечение (доверие 9) [64748A30]
Трек 11 точное извлечение (доверие 10) [F53FD5A2]
Трек 12 точное извлечение (доверие 10) [C170432A]
Трек 13 точное извлечение (доверие 10) [AE78FF2A]
Трек 14 точное извлечение (доверие 11) [7D8432A3]
Трек 15 точное извлечение (доверие 10) [33B8A2F5]

13 трек(и) скопированы точно
2 трек(и) не удалось проверить на точность

Некоторые треки не прошли проверку на точность

Конец отчёта

REM GENRE Ska
REM DATE 1979
REM DISCID C409240F
REM COMMENT “ExactAudioCopy v0.99pb4”
PERFORMER “Madness”
TITLE “One Step Beyond…”
FILE “Madness – One Step Beyond….flac” WAVE
TRACK 01 AUDIO
TITLE “One Step Beyond”
PERFORMER “Madness”
INDEX 00 00:00:00
INDEX 01 00:00:33
TRACK 02 AUDIO
TITLE “My Girl”
PERFORMER “Madness”
INDEX 00 02:18:30
INDEX 01 02:18:33
TRACK 03 AUDIO
TITLE “Night Boat To Cairo”
PERFORMER “Madness”
INDEX 00 05:03:00
INDEX 01 05:03:03
TRACK 04 AUDIO
TITLE “Believe Me”
PERFORMER “Madness”
INDEX 00 08:34:35
INDEX 01 08:34:38
TRACK 05 AUDIO
TITLE “Land Of Hope And Glory”
PERFORMER “Madness”
INDEX 00 11:03:15
INDEX 01 11:03:18
TRACK 06 AUDIO
TITLE “The Prince”
PERFORMER “Madness”
INDEX 00 14:01:05
INDEX 01 14:01:08
TRACK 07 AUDIO
TITLE “Tarzan’s Nuts”
PERFORMER “Madness”
INDEX 00 17:19:68
INDEX 01 17:19:70
TRACK 08 AUDIO
TITLE “In The Middle Of The Night”
PERFORMER “Madness”
INDEX 00 19:44:45
INDEX 01 19:44:48
TRACK 09 AUDIO
TITLE “Bed & Breakfast Man”
PERFORMER “Madness”
INDEX 00 22:46:23
INDEX 01 22:46:25
TRACK 10 AUDIO
TITLE “Razor Blade Alley”
PERFORMER “Madness”
INDEX 00 25:19:25
INDEX 01 25:19:28
TRACK 11 AUDIO
TITLE “Swan Lake”
PERFORMER “Madness”
INDEX 00 28:01:45
INDEX 01 28:01:48
TRACK 12 AUDIO
TITLE “Rockin’ In A B”
PERFORMER “Madness”
INDEX 00 30:37:45
INDEX 01 30:37:48
TRACK 13 AUDIO
TITLE “Mummy’s Boy”
PERFORMER “Madness”
INDEX 00 33:07:00
INDEX 01 33:07:03
TRACK 14 AUDIO
TITLE “(They Call It) Madness”
PERFORMER “Madness”
INDEX 00 35:30:63
INDEX 01 35:30:65
TRACK 15 AUDIO
TITLE “Chipmunks Are Go!”
PERFORMER “Madness”
INDEX 00 38:09:03
INDEX 01 38:09:05


Leave a Reply

Your email address will not be published. Required fields are marked *

This site uses Akismet to reduce spam. Learn how your comment data is processed.