Madness – Mad Not Mad




Artist: Madness
Year: 1985
Genre: Ska
Notes: Discogs
Add. Notes:
Cover incl.: Yes
Encoder: FLAC
Bitrate: ~800 kBit/s (44.1 kHz/16 Bit/s)
Log & Cue incl.: Yes
Size: 255,5 MB
Password: “slam” (without ” “)


All Downloads/Hosters are compatible

Download 1
Turbobit.net
Rapidgator.net
KatFile.com
UploadRar.com
Download 2
Turbobit.net
Rapidgator.net
KatFile.com
UploadRar.com

Tracklist:

1 - I'll Compete - 3:21
2 - Yesterday's Men - 4:37
3 - Uncle Sam - 4:16
4 - White Heat - 3:47
5 - Mad Not Mad - 4:10
6 - Sweetest Girl - 5:47
7 - Burning The Boats - 4:31
8 - Tears You Can't Hide - 3:08
9 - Time - 4:18
10 - Coldest Day - 4:24

EAC-Log, CUE-Sheed & NFO:

Click to open spoiler
Exact Audio Copy V0.99 prebeta 4 from 23. January 2008

Отчёт EAC об извлечении, выполненном 18. марта 2008, 11:30

Madness / Mad Not Mad

Дисковод: Optiarc DVD RW AD-7173S Adapter: 3 ID: 0

Режим чтения : Достоверность
Использование точного потока : Да
Отключение кэша аудио : Да
Использование указателей C2 : Нет

Коррекция смещения при чтении : 48
Способность читать области Lead-in и Lead-out : Нет
Заполнение пропущенных сэмплов тишиной : Да
Удаление блоков с тишиной в начале и конце : Нет
При вычислениях CRC использовались нулевые сэмплы : Да
Интерфейс : Встроенный Win32-интерфейс для Win NT/2000

Выходной формат : Пользовательский кодировщик
Выбранный битрейт : 320 kBit/s
Качество : Высокий
Добавление ID3-тэга : Нет
Утилита сжатия : C:\Program Files\Exact Audio Copy\FLAC\flac.exe
Дополнительные параметры : -T “artist=%a” -T “title=%t” -T “album=%g” -T “date=%y” -T “tracknumber=%n” -T “genre=%m” -5 %s

TOC извлечённого CD

Трек | Старт | Длительность | Начальный сектор | Конечный сектор
———————————————————————
1 | 0:00.00 | 3:21.57 | 0 | 15131
2 | 3:21.57 | 4:37.05 | 15132 | 35911
3 | 7:58.62 | 4:16.10 | 35912 | 55121
4 | 12:14.72 | 3:47.03 | 55122 | 72149
5 | 16:02.00 | 4:10.12 | 72150 | 90911
6 | 20:12.12 | 5:47.13 | 90912 | 116949
7 | 25:59.25 | 4:31.02 | 116950 | 137276
8 | 30:30.27 | 3:08.68 | 137277 | 151444
9 | 33:39.20 | 4:18.65 | 151445 | 170859
10 | 37:58.10 | 4:24.02 | 170860 | 190661

Характеристики диапазона извлечения и сообщения об ошибках

Выбранный диапазон

Имя файла D:\01 – Музыка\01 – LOSSLESS\Madness (FLAC)\Madness – Mad Not Mad.wav

Пиковый уровень 97.6 %
Качество диапазона 100.0 %
CRC копии 01703381
Копирование… OK

Ошибок не произошло

AccurateRip: сводка

Трек 1 точное извлечение (доверие 2) [1B581979]
Трек 2 точное извлечение (доверие 2) [60C71C37]
Трек 3 точное извлечение (доверие 2) [0912516D]
Трек 4 точное извлечение (доверие 2) [10CA0C4D]
Трек 5 точное извлечение (доверие 2) [A1C1DACD]
Трек 6 точное извлечение (доверие 2) [1952EF5F]
Трек 7 точное извлечение (доверие 2) [47AF41B5]
Трек 8 точное извлечение (доверие 2) [2DAF4797]
Трек 9 точное извлечение (доверие 2) [68D584D0]
Трек 10 точное извлечение (доверие 2) [06862F8F]

Все треки извлечены точно

Конец отчёта

REM GENRE Ska
REM DATE 1985
REM DISCID 6A09EE0A
REM COMMENT “ExactAudioCopy v0.99pb4”
PERFORMER “Madness”
TITLE “Mad Not Mad”
FILE “Madness – Mad Not Mad.flac” WAVE
TRACK 01 AUDIO
TITLE “I’ll Compete”
PERFORMER “Madness”
INDEX 01 00:00:00
TRACK 02 AUDIO
TITLE “Yesterday’s Men”
PERFORMER “Madness”
INDEX 01 03:21:57
TRACK 03 AUDIO
TITLE “Uncle Sam”
PERFORMER “Madness”
INDEX 01 07:58:62
TRACK 04 AUDIO
TITLE “White Heat”
PERFORMER “Madness”
INDEX 01 12:14:72
TRACK 05 AUDIO
TITLE “Mad Not Mad”
PERFORMER “Madness”
INDEX 01 16:02:00
TRACK 06 AUDIO
TITLE “Sweetest Girl”
PERFORMER “Madness”
INDEX 01 20:12:12
TRACK 07 AUDIO
TITLE “Burning The Boats”
PERFORMER “Madness”
INDEX 01 25:59:25
TRACK 08 AUDIO
TITLE “Tears You Can’t Hide”
PERFORMER “Madness”
INDEX 01 30:30:27
TRACK 09 AUDIO
TITLE “Time”
PERFORMER “Madness”
INDEX 01 33:39:20
TRACK 10 AUDIO
TITLE “Coldest Day”
PERFORMER “Madness”
INDEX 01 37:58:10


Leave a Reply

Your email address will not be published. Required fields are marked *

Enter the text from the image below
 

This site uses Akismet to reduce spam. Learn how your comment data is processed.