Madness – Keep Moving




Artist: Madness
Year: 1984
Genre: Ska
Notes: Discogs
Add. Notes:
Cover incl.: Yes
Encoder: FLAC
Bitrate: ~900 kBit/s (44.1 kHz/16 Bit/s)
Log & Cue incl.: Yes
Size: 285,59 MB
Password: “slam” (without ” “)


All Downloads/Hosters are compatible

Download 1
Turbobit.net
Rapidgator.net
KatFile.com
UploadRar.com
Download 2
Turbobit.net
Rapidgator.net
KatFile.com
UploadRar.com
Download 3
Turbobit.net
Rapidgator.net
KatFile.com
UploadRar.com

Tracklist:

1 - Keep Moving - 3:31
2 - Michael Caine - 3:37
3 - Turning Blue - 3:06
4 - One Better Day - 4:04
5 - March Of The Gherkins - 3:28
6 - Waltz Into Mischief - 3:36
7 - Brand New Beat - 3:16
8 - Victoria Gardens - 4:30
9 - Samantha - 3:11
10 - Time For Tea - 3:05
11 - Prospects - 4:11
12 - Give Me A Reason - 3:25

EAC-Log, CUE-Sheed & NFO:

Click to open spoiler
Exact Audio Copy V0.99 prebeta 4 from 23. January 2008

Отчёт EAC об извлечении, выполненном 18. марта 2008, 11:12

Madness / Keep Moving

Дисковод: Optiarc DVD RW AD-7173S Adapter: 3 ID: 0

Режим чтения : Достоверность
Использование точного потока : Да
Отключение кэша аудио : Да
Использование указателей C2 : Нет

Коррекция смещения при чтении : 48
Способность читать области Lead-in и Lead-out : Нет
Заполнение пропущенных сэмплов тишиной : Да
Удаление блоков с тишиной в начале и конце : Нет
При вычислениях CRC использовались нулевые сэмплы : Да
Интерфейс : Встроенный Win32-интерфейс для Win NT/2000

Выходной формат : Пользовательский кодировщик
Выбранный битрейт : 320 kBit/s
Качество : Высокий
Добавление ID3-тэга : Нет
Утилита сжатия : C:\Program Files\Exact Audio Copy\FLAC\flac.exe
Дополнительные параметры : -T “artist=%a” -T “title=%t” -T “album=%g” -T “date=%y” -T “tracknumber=%n” -T “genre=%m” -5 %s

TOC извлечённого CD

Трек | Старт | Длительность | Начальный сектор | Конечный сектор
———————————————————————
1 | 0:00.32 | 3:32.13 | 32 | 15944
2 | 3:32.45 | 3:39.02 | 15945 | 32371
3 | 7:11.47 | 3:06.33 | 32372 | 46354
4 | 10:18.05 | 4:06.35 | 46355 | 64839
5 | 14:24.40 | 3:29.65 | 64840 | 80579
6 | 17:54.30 | 3:36.32 | 80580 | 96811
7 | 21:30.62 | 3:17.03 | 96812 | 111589
8 | 24:47.65 | 4:31.45 | 111590 | 131959
9 | 29:19.35 | 3:13.57 | 131960 | 146491
10 | 32:33.17 | 3:08.55 | 146492 | 160646
11 | 35:41.72 | 4:14.13 | 160647 | 179709
12 | 39:56.10 | 3:27.22 | 179710 | 195256

Характеристики диапазона извлечения и сообщения об ошибках

Выбранный диапазон

Имя файла D:\01 – Музыка\01 – LOSSLESS\Madness (FLAC)\Madness – Keep Moving.wav

Пиковый уровень 97.7 %
Качество диапазона 100.0 %
CRC копии E9B34CDE
Копирование… OK

Ошибок не произошло

AccurateRip: сводка

Трек 1 точное извлечение (доверие 2) [0023286A]
Трек 2 точное извлечение (доверие 2) [5D1F42D3]
Трек 3 точное извлечение (доверие 2) [F64C900F]
Трек 4 точное извлечение (доверие 2) [50EE38FB]
Трек 5 точное извлечение (доверие 2) [F7BD672D]
Трек 6 точное извлечение (доверие 2) [65CB19B1]
Трек 7 точное извлечение (доверие 2) [7B50CDEA]
Трек 8 точное извлечение (доверие 2) [824EA447]
Трек 9 точное извлечение (доверие 2) [36ACB0C0]
Трек 10 точное извлечение (доверие 2) [015340AA]
Трек 11 точное извлечение (доверие 2) [08D253CE]
Трек 12 точное извлечение (доверие 2) [0BC8864C]

Все треки извлечены точно

Конец отчёта

REM GENRE Ska
REM DATE 1984
REM DISCID A40A2B0C
REM COMMENT “ExactAudioCopy v0.99pb4”
PERFORMER “Madness”
TITLE “Keep Moving”
FILE “Madness – Keep Moving.flac” WAVE
TRACK 01 AUDIO
TITLE “Keep Moving”
PERFORMER “Madness”
INDEX 00 00:00:00
INDEX 01 00:00:32
TRACK 02 AUDIO
TITLE “Michael Caine”
PERFORMER “Madness”
INDEX 00 03:32:42
INDEX 01 03:32:45
TRACK 03 AUDIO
TITLE “Turning Blue”
PERFORMER “Madness”
INDEX 00 07:11:45
INDEX 01 07:11:47
TRACK 04 AUDIO
TITLE “One Better Day”
PERFORMER “Madness”
INDEX 00 10:18:02
INDEX 01 10:18:05
TRACK 05 AUDIO
TITLE “March of the Gherkins”
PERFORMER “Madness”
INDEX 00 14:24:37
INDEX 01 14:24:40
TRACK 06 AUDIO
TITLE “Waltz Into Mischief”
PERFORMER “Madness”
INDEX 00 17:54:27
INDEX 01 17:54:30
TRACK 07 AUDIO
TITLE “Brand New Beat”
PERFORMER “Madness”
INDEX 00 21:30:60
INDEX 01 21:30:62
TRACK 08 AUDIO
TITLE “Victoria Gardens”
PERFORMER “Madness”
INDEX 00 24:47:62
INDEX 01 24:47:65
TRACK 09 AUDIO
TITLE “Samantha”
PERFORMER “Madness”
INDEX 00 29:19:32
INDEX 01 29:19:35
TRACK 10 AUDIO
TITLE “Time For Tea”
PERFORMER “Madness”
INDEX 00 32:33:14
INDEX 01 32:33:17
TRACK 11 AUDIO
TITLE “Prospects”
PERFORMER “Madness”
INDEX 00 35:41:70
INDEX 01 35:41:72
TRACK 12 AUDIO
TITLE “Give Me a Reason”
PERFORMER “Madness”
INDEX 00 39:56:07
INDEX 01 39:56:10


Leave a Reply

Your email address will not be published. Required fields are marked *

This site uses Akismet to reduce spam. Learn how your comment data is processed.