Madness – Absolutely




Artist: Madness
Year: 1980/1989
Genre: Ska
Notes: Discogs
Add. Notes:
Cover incl.: No
Encoder: FLAC
Bitrate: ~900 kBit/s (44.1 kHz/16 Bit/s)
Log & Cue incl.: Yes
Size: 268 MB
Password: “slam” (without ” “)


All Downloads/Hosters are compatible

Download 1
Turbobit.net
Rapidgator.net
UploadEver.com
KatFile.com
UsersDrive.com
Download 2
Turbobit.net
Rapidgator.net
UploadEver.com
KatFile.com
UsersDrive.com
Download 3
Turbobit.net
Rapidgator.net
UploadEver.com
KatFile.com
UsersDrive.com

Tracklist:

1 - Baggy Trousers - 2:45
2 - Embarrassment - 3:13
3 - E.R.N.I.E. - 2:08
4 - Close Escape - 3:29
5 - Not Home Today - 2:30
6 - On The Beat Pete - 3:05
7 - Solid Gone - 2:22
8 - Take It Or Leave It - 3:26
9 - Shadow Of Fear - 1:58
10 - Disappear - 2:58
11 - Overdone - 3:45
12 - In The Rain - 2:42
13 - You Said - 2:35
14 - Return Of The Los Palmas 7 - 
1:57

EAC-Log, CUE-Sheed & NFO:

Click to open spoiler
Exact Audio Copy V0.99 prebeta 4 from 23. January 2008

Отчёт EAC об извлечении, выполненном 18. марта 2008, 10:26

Madness / Absolutely

Дисковод: Optiarc DVD RW AD-7173S Adapter: 3 ID: 0

Режим чтения : Достоверность
Использование точного потока : Да
Отключение кэша аудио : Да
Использование указателей C2 : Нет

Коррекция смещения при чтении : 48
Способность читать области Lead-in и Lead-out : Нет
Заполнение пропущенных сэмплов тишиной : Да
Удаление блоков с тишиной в начале и конце : Нет
При вычислениях CRC использовались нулевые сэмплы : Да
Интерфейс : Встроенный Win32-интерфейс для Win NT/2000

Выходной формат : Пользовательский кодировщик
Выбранный битрейт : 320 kBit/s
Качество : Высокий
Добавление ID3-тэга : Нет
Утилита сжатия : C:\Program Files\Exact Audio Copy\FLAC\flac.exe
Дополнительные параметры : -T “artist=%a” -T “title=%t” -T “album=%g” -T “date=%y” -T “tracknumber=%n” -T “genre=%m” -5 %s

TOC извлечённого CD

Трек | Старт | Длительность | Начальный сектор | Конечный сектор
———————————————————————
1 | 0:00.33 | 2:46.60 | 33 | 12542
2 | 2:47.18 | 3:10.67 | 12543 | 26859
3 | 5:58.10 | 2:09.35 | 26860 | 36569
4 | 8:07.45 | 3:32.43 | 36570 | 52512
5 | 11:40.13 | 2:43.60 | 52513 | 64797
6 | 14:23.73 | 3:04.55 | 64798 | 78652
7 | 17:28.53 | 2:19.60 | 78653 | 89137
8 | 19:48.38 | 3:27.52 | 89138 | 104714
9 | 23:16.15 | 1:59.33 | 104715 | 113672
10 | 25:15.48 | 2:58.52 | 113673 | 127074
11 | 28:14.25 | 3:45.28 | 127075 | 143977
12 | 31:59.53 | 2:43.70 | 143978 | 156272
13 | 34:43.48 | 2:34.70 | 156273 | 167892
14 | 37:18.43 | 2:04.65 | 167893 | 177257

Характеристики диапазона извлечения и сообщения об ошибках

Выбранный диапазон

Имя файла D:\01 – Музыка\01 – LOSSLESS\Madness (FLAC)\Madness – Absolutely.wav

Пиковый уровень 98.5 %
Качество диапазона 100.0 %
CRC копии 297CF1E9
Копирование… OK

Ошибок не произошло

AccurateRip: сводка

Трек 1 точное извлечение (доверие 4) [D73AAA8B]
Трек 2 точное извлечение (доверие 4) [B0BA39A1]
Трек 3 точное извлечение (доверие 4) [9B5101DC]
Трек 4 точное извлечение (доверие 4) [83936C7D]
Трек 5 точное извлечение (доверие 4) [0CD73906]
Трек 6 точное извлечение (доверие 4) [8C9302DF]
Трек 7 точное извлечение (доверие 4) [096E3745]
Трек 8 точное извлечение (доверие 4) [D4720797]
Трек 9 точное извлечение (доверие 4) [193A2758]
Трек 10 точное извлечение (доверие 4) [EFFDD83C]
Трек 11 точное извлечение (доверие 4) [CF6035FD]
Трек 12 точное извлечение (доверие 4) [E4A3DCA1]
Трек 13 точное извлечение (доверие 4) [B6BE847E]
Трек 14 точное извлечение (доверие 4) [05097465]

Все треки извлечены точно

Конец отчёта

REM GENRE Ska
REM DATE 1980
REM DISCID BA093B0E
REM COMMENT “ExactAudioCopy v0.99pb4”
PERFORMER “Madness”
TITLE “Absolutely”
FILE “Madness – Absolutely.flac” WAVE
TRACK 01 AUDIO
TITLE “Baggy Trousers”
PERFORMER “Madness”
INDEX 00 00:00:00
INDEX 01 00:00:33
TRACK 02 AUDIO
TITLE “Embarrassment”
PERFORMER “Madness”
INDEX 00 02:47:15
INDEX 01 02:47:18
TRACK 03 AUDIO
TITLE “E.R.N.I.E.”
PERFORMER “Madness”
INDEX 00 05:58:08
INDEX 01 05:58:10
TRACK 04 AUDIO
TITLE “Close Escape”
PERFORMER “Madness”
INDEX 00 08:07:43
INDEX 01 08:07:45
TRACK 05 AUDIO
TITLE “Not Home Today”
PERFORMER “Madness”
INDEX 00 11:40:10
INDEX 01 11:40:13
TRACK 06 AUDIO
TITLE “On the Beat Pete”
PERFORMER “Madness”
INDEX 00 14:23:70
INDEX 01 14:23:73
TRACK 07 AUDIO
TITLE “Solid Gone”
PERFORMER “Madness”
INDEX 00 17:28:50
INDEX 01 17:28:53
TRACK 08 AUDIO
TITLE “Take It or Leave It”
PERFORMER “Madness”
INDEX 00 19:48:35
INDEX 01 19:48:38
TRACK 09 AUDIO
TITLE “Shadow of Fear”
PERFORMER “Madness”
INDEX 00 23:16:13
INDEX 01 23:16:15
TRACK 10 AUDIO
TITLE “Disappear”
PERFORMER “Madness”
INDEX 00 25:15:45
INDEX 01 25:15:48
TRACK 11 AUDIO
TITLE “Overdone”
PERFORMER “Madness”
INDEX 00 28:14:23
INDEX 01 28:14:25
TRACK 12 AUDIO
TITLE “In The Rain”
PERFORMER “Madness”
INDEX 00 31:59:50
INDEX 01 31:59:53
TRACK 13 AUDIO
TITLE “You Said”
PERFORMER “Madness”
INDEX 00 34:43:45
INDEX 01 34:43:48
TRACK 14 AUDIO
TITLE “Return of the Los Palmas 7”
PERFORMER “Madness”
INDEX 00 37:18:40
INDEX 01 37:18:43


Leave a Reply

Your email address will not be published. Required fields are marked *

Enter the text from the image below
 

This site uses Akismet to reduce spam. Learn how your comment data is processed.