Madness – 7 (Reissue)




Artist: Madness
Year: 1981/1989
Genre: Ska
Notes: Discogs
Add. Notes: Reissue
Cover incl.: Yes
Encoder: FLAC
Bitrate: ~900 kBit/s (44.1 kHz/16 Bit/s)
Log & Cue incl.: Yes
Size: 249,58 MB
Password: “slam” (without ” “)


All Downloads/Hosters are compatible

Download 1
Turbobit.net
KatFile.com
Rapidgator.net
NitroFlare.com
Download 2
Turbobit.net
KatFile.com
Rapidgator.net
NitroFlare.com

Tracklist:

1 - Cardiac Arrest - 2:52
2 - Shut Up - 4:08
3 - Sign Of The Times - 2:43
4 - Missing You - 2:32
5 - Mrs. Hutchinson - 2:17
6 - Tomorrows Dream - 3:55
7 - Grey Day - 3:40
8 - Pac-A-Mac - 2:37
9 - Promises Promises - 2:52
10 - Benny Bullfrog - 1:51
11 - When Dawn Arrives - 2:43
12 - The Opium Eaters - 3:02
13 - Day On The Town - 3:23

EAC-Log, CUE-Sheed & NFO:

Click to open spoiler
Exact Audio Copy V0.99 prebeta 4 from 23. January 2008

Отчёт EAC об извлечении, выполненном 18. марта 2008, 10:39

Madness / 7

Дисковод: Optiarc DVD RW AD-7173S Adapter: 3 ID: 0

Режим чтения : Достоверность
Использование точного потока : Да
Отключение кэша аудио : Да
Использование указателей C2 : Нет

Коррекция смещения при чтении : 48
Способность читать области Lead-in и Lead-out : Нет
Заполнение пропущенных сэмплов тишиной : Да
Удаление блоков с тишиной в начале и конце : Нет
При вычислениях CRC использовались нулевые сэмплы : Да
Интерфейс : Встроенный Win32-интерфейс для Win NT/2000

Выходной формат : Пользовательский кодировщик
Выбранный битрейт : 320 kBit/s
Качество : Высокий
Добавление ID3-тэга : Нет
Утилита сжатия : C:\Program Files\Exact Audio Copy\FLAC\flac.exe
Дополнительные параметры : -T “artist=%a” -T “title=%t” -T “album=%g” -T “date=%y” -T “tracknumber=%n” -T “genre=%m” -5 %s

TOC извлечённого CD

Трек | Старт | Длительность | Начальный сектор | Конечный сектор
———————————————————————
1 | 0:00.33 | 2:52.12 | 33 | 12944
2 | 2:52.45 | 4:08.03 | 12945 | 31547
3 | 7:00.48 | 2:43.70 | 31548 | 43842
4 | 9:44.43 | 2:32.60 | 43843 | 55302
5 | 12:17.28 | 2:17.17 | 55303 | 65594
6 | 14:34.45 | 3:55.50 | 65595 | 83269
7 | 18:30.20 | 3:40.50 | 83270 | 99819
8 | 22:10.70 | 2:37.28 | 99820 | 111622
9 | 24:48.23 | 2:52.05 | 111623 | 124527
10 | 27:40.28 | 1:51.35 | 124528 | 132887
11 | 29:31.63 | 2:43.30 | 132888 | 145142
12 | 32:15.18 | 3:02.67 | 145143 | 158859
13 | 35:18.10 | 3:23.25 | 158860 | 174109

Характеристики диапазона извлечения и сообщения об ошибках

Выбранный диапазон

Имя файла D:\01 – Музыка\01 – LOSSLESS\Madness (FLAC)\Madness – 7.wav

Пиковый уровень 97.7 %
Качество диапазона 99.9 %
CRC копии 3BD0DB0A
Копирование… OK

Ошибок не произошло

AccurateRip: сводка

Трек 1 точное извлечение (доверие 2) [0F8D3CC4]
Трек 2 точное извлечение (доверие 2) [B2C069C8]
Трек 3 точное извлечение (доверие 2) [0A059248]
Трек 4 точное извлечение (доверие 2) [AF8F51D4]
Трек 5 точное извлечение (доверие 2) [3CC98806]
Трек 6 точное извлечение (доверие 2) [4A1A9A3C]
Трек 7 точное извлечение (доверие 2) [AF848456]
Трек 8 точное извлечение (доверие 2) [3536E2B4]
Трек 9 точное извлечение (доверие 2) [2B06E757]
Трек 10 точное извлечение (доверие 2) [0CF9E900]
Трек 11 точное извлечение (доверие 2) [5B18D4C3]
Трек 12 точное извлечение (доверие 2) [321966C1]
Трек 13 точное извлечение (доверие 2) [176464E3]

Все треки извлечены точно

Конец отчёта

REM GENRE Ska
REM DATE 1981
REM DISCID A709110D
REM COMMENT “ExactAudioCopy v0.99pb4”
PERFORMER “Madness”
TITLE “7”
FILE “Madness – 7.flac” WAVE
TRACK 01 AUDIO
TITLE “Cardiac arrest”
PERFORMER “Madness”
INDEX 00 00:00:00
INDEX 01 00:00:33
TRACK 02 AUDIO
TITLE “Shut up”
PERFORMER “Madness”
INDEX 01 02:52:45
TRACK 03 AUDIO
TITLE “Sign of the times”
PERFORMER “Madness”
INDEX 01 07:00:48
TRACK 04 AUDIO
TITLE “Missing you”
PERFORMER “Madness”
INDEX 01 09:44:43
TRACK 05 AUDIO
TITLE “Mrs Hutchinson”
PERFORMER “Madness”
INDEX 01 12:17:28
TRACK 06 AUDIO
TITLE “Tomorrow’s dream”
PERFORMER “Madness”
INDEX 01 14:34:45
TRACK 07 AUDIO
TITLE “Grey day”
PERFORMER “Madness”
INDEX 01 18:30:20
TRACK 08 AUDIO
TITLE “Pac-a-mac”
PERFORMER “Madness”
INDEX 00 22:09:58
INDEX 01 22:10:70
TRACK 09 AUDIO
TITLE “Promises promises”
PERFORMER “Madness”
INDEX 01 24:48:23
TRACK 10 AUDIO
TITLE “Benny Bullfrog”
PERFORMER “Madness”
INDEX 01 27:40:28
TRACK 11 AUDIO
TITLE “When dawn arrives”
PERFORMER “Madness”
INDEX 01 29:31:63
TRACK 12 AUDIO
TITLE “The opium eaters”
PERFORMER “Madness”
INDEX 01 32:15:18
TRACK 13 AUDIO
TITLE “Day on the town”
PERFORMER “Madness”
INDEX 01 35:18:10


Leave a Reply

Your email address will not be published. Required fields are marked *

This site uses Akismet to reduce spam. Learn how your comment data is processed.