Mad Caddies – Rock The Plank




Artist: Mad Caddies
Year: 2001
Genre: Ska
Notes: Discogs
Add. Notes:
Cover incl.: Yes
Encoder: FLAC
Bitrate: ~900 kBit/s (44.1 kHz/16 Bit/s)
Log & Cue incl.: Yes
Size: 266,18 MB
Password: “slam” (without ” “)


All Downloads/Hosters are compatible

Download 1
Turbobit.net
Rapidgator.net
UploadEver.com
KatFile.com
UsersDrive.com
Download 2
Turbobit.net
Rapidgator.net
UploadEver.com
KatFile.com
UsersDrive.com
Download 3
Turbobit.net
Rapidgator.net
UploadEver.com
KatFile.com
UsersDrive.com

Tracklist:

1 - Shaving Your Life - 2:06
2 - Mary Melody - 3:08
3 - B-Side - 2:58
4 - Days Away - 3:44
5 - Bridges - 2:41
6 - We'll Start To Worry When The Cynics Start 
Believing - 3:17
7 - Weird Beard - 2:44
8 - Easy Cheese - 2:13
9 - Hound Bound - 3:37
10 - Depleted Salvo - 2:59
11 - Chevy Novacaine - 2:39
12 - Booze Cruise - 2:25
13 - All American Badass - 2:41

EAC-Log, CUE-Sheed & NFO:

Click to open spoiler
EAC extraction logfile from 13. January 2008, 22:21 for CD
Mad Caddies / Rock The Plank

Used drive : HL-DT-STCD-RW GCE-8520B Adapter: 1 ID: 0
Read mode : Secure with NO C2, accurate stream, disable cache
Read offset correction : 6
Overread into Lead-In and Lead-Out : No

Used output format : C:\Program Files\Exact Audio Copy\flac.exe (User Defined Encoder)
192 kBit/s
Additional command line options : -8 -A tukey(0.25) -A gauss(0.1875) -b 4096 -V -T “artist=%a” -T “title=%t” -T “album=%g” -T “date=%y” -T “tracknumber=%n” -T “genre=%m” %s –sector-align

Other options :
Fill up missing offset samples with silence : Yes
Delete leading and trailing silent blocks : No
Installed external ASPI interface

Track 1
Filename R:\Uploaded Music\[FLAC]\Mad Caddies – Rock The Plank\01 – Shaving Your Life.wav

Pre-gap length 0:00:02.00

Peak level 98.8 %
Track quality 100.0 %
Test CRC 58562607
Copy CRC 58562607
Copy OK

Track 2
Filename R:\Uploaded Music\[FLAC]\Mad Caddies – Rock The Plank\02 – Mary Melody.wav

Peak level 98.8 %
Track quality 99.9 %
Test CRC 53B2B32C
Copy CRC 53B2B32C
Copy OK

Track 3
Filename R:\Uploaded Music\[FLAC]\Mad Caddies – Rock The Plank\03 – B-Side.wav

Peak level 98.8 %
Track quality 100.0 %
Test CRC 1DD71AF1
Copy CRC 1DD71AF1
Copy OK

Track 4
Filename R:\Uploaded Music\[FLAC]\Mad Caddies – Rock The Plank\04 – Days Away.wav

Peak level 98.8 %
Track quality 100.0 %
Test CRC F6A38B01
Copy CRC F6A38B01
Copy OK

Track 5
Filename R:\Uploaded Music\[FLAC]\Mad Caddies – Rock The Plank\05 – Bridges.wav

Peak level 98.8 %
Track quality 100.0 %
Test CRC AB93B5C6
Copy CRC AB93B5C6
Copy OK

Track 6
Filename R:\Uploaded Music\[FLAC]\Mad Caddies – Rock The Plank\06 – We’ll Start To Worry When The Cynics Start Believing.wav

Peak level 98.8 %
Track quality 99.9 %
Test CRC 0E9C26EA
Copy CRC 0E9C26EA
Copy OK

Track 7
Filename R:\Uploaded Music\[FLAC]\Mad Caddies – Rock The Plank\07 – Weird Beard.wav

Peak level 98.8 %
Track quality 100.0 %
Test CRC 55EB0483
Copy CRC 55EB0483
Copy OK

Track 8
Filename R:\Uploaded Music\[FLAC]\Mad Caddies – Rock The Plank\08 – Easy Cheese.wav

Peak level 98.8 %
Track quality 100.0 %
Test CRC 1909F72C
Copy CRC 1909F72C
Copy OK

Track 9
Filename R:\Uploaded Music\[FLAC]\Mad Caddies – Rock The Plank\09 – Hound Bound.wav

Peak level 98.8 %
Track quality 100.0 %
Test CRC 6670B1A1
Copy CRC 6670B1A1
Copy OK

Track 10
Filename R:\Uploaded Music\[FLAC]\Mad Caddies – Rock The Plank\10 – Depleted Salvo.wav

Peak level 98.8 %
Track quality 100.0 %
Test CRC 1E4EFDB2
Copy CRC 1E4EFDB2
Copy OK

Track 11
Filename R:\Uploaded Music\[FLAC]\Mad Caddies – Rock The Plank\11 – Chevy Novacaine.wav

Peak level 98.8 %
Track quality 100.0 %
Test CRC 98FF084C
Copy CRC 98FF084C
Copy OK

Track 12
Filename R:\Uploaded Music\[FLAC]\Mad Caddies – Rock The Plank\12 – Booze Cruise.wav

Peak level 98.8 %
Track quality 100.0 %
Test CRC 2F48BE59
Copy CRC 2F48BE59
Copy OK

Track 13
Filename R:\Uploaded Music\[FLAC]\Mad Caddies – Rock The Plank\13 – All American Badass.wav

Peak level 98.8 %
Track quality 99.9 %
Test CRC C024BBDC
Copy CRC C024BBDC
Copy OK

No errors occured

End of status report

REM GENRE Punk
REM DATE 2001
REM DISCID B508BC0D
REM COMMENT “ExactAudioCopy v0.95b3”
PERFORMER “Mad Caddies”
TITLE “Rock The Plank”
FILE “01 – Shaving Your Life.wav” WAVE
TRACK 01 AUDIO
TITLE “Shaving Your Life”
PERFORMER “Mad Caddies”
INDEX 01 00:00:00
FILE “02 – Mary Melody.wav” WAVE
TRACK 02 AUDIO
TITLE “Mary Melody”
PERFORMER “Mad Caddies”
INDEX 01 00:00:00
FILE “03 – B-Side.wav” WAVE
TRACK 03 AUDIO
TITLE “B-Side”
PERFORMER “Mad Caddies”
INDEX 01 00:00:00
FILE “04 – Days Away.wav” WAVE
TRACK 04 AUDIO
TITLE “Days Away”
PERFORMER “Mad Caddies”
INDEX 01 00:00:00
FILE “05 – Bridges.wav” WAVE
TRACK 05 AUDIO
TITLE “Bridges”
PERFORMER “Mad Caddies”
INDEX 01 00:00:00
FILE “06 – We’ll Start To Worry When The Cynics Start Believing.wav” WAVE
TRACK 06 AUDIO
TITLE “We’ll Start To Worry When The Cynics Start Believing”
PERFORMER “Mad Caddies”
INDEX 01 00:00:00
FILE “07 – Weird Beard.wav” WAVE
TRACK 07 AUDIO
TITLE “Weird Beard”
PERFORMER “Mad Caddies”
INDEX 01 00:00:00
FILE “08 – Easy Cheese.wav” WAVE
TRACK 08 AUDIO
TITLE “Easy Cheese”
PERFORMER “Mad Caddies”
INDEX 01 00:00:00
FILE “09 – Hound Bound.wav” WAVE
TRACK 09 AUDIO
TITLE “Hound Bound”
PERFORMER “Mad Caddies”
INDEX 01 00:00:00
FILE “10 – Depleted Salvo.wav” WAVE
TRACK 10 AUDIO
TITLE “Depleted Salvo”
PERFORMER “Mad Caddies”
INDEX 01 00:00:00
FILE “11 – Chevy Novacaine.wav” WAVE
TRACK 11 AUDIO
TITLE “Chevy Novacaine”
PERFORMER “Mad Caddies”
INDEX 01 00:00:00
FILE “12 – Booze Cruise.wav” WAVE
TRACK 12 AUDIO
TITLE “Booze Cruise”
PERFORMER “Mad Caddies”
INDEX 01 00:00:00
FILE “13 – All American Badass.wav” WAVE
TRACK 13 AUDIO
TITLE “All American Badass”
PERFORMER “Mad Caddies”
INDEX 01 00:00:00


Leave a Reply

Your email address will not be published. Required fields are marked *

This site uses Akismet to reduce spam. Learn how your comment data is processed.