Mad Caddies – Quality Soft Core




Artist: Mad Caddies
Year: 1997
Genre: Ska
Notes: Discogs
Add. Notes:
Cover incl.: Yes
Encoder: FLAC
Bitrate: ~900 kBit/s (44.1 kHz/16 Bit/s)
Log & Cue incl.: Yes
Size: 241,49 MB
Password: “slam” (without ” “)


All Downloads/Hosters are compatible

Download 1
Turbobit.net
Rapidgator.net
KatFile.com
UploadRar.com
Download 2
Turbobit.net
Rapidgator.net
KatFile.com
UploadRar.com

Tracklist:

1 - I'm So Alone - 4:10
2 - Distress - 3:49
3 - Cup O' Tea - 1:44
4 - The Bell Tower - 2:42
5 - No Se' - 2:41
6 - Crew Cut Chuck - 1:56
7 - Goleta - 1:24
8 - Big Brother - 3:25
9 - L.G.'s - 3:20
10 - Polyester Khakis - 2:20
11 - Preppie Girl - 2:35
12 - Mum's The Word - 1:38
13 - Sad Reggie - 4:50

EAC-Log, CUE-Sheed & NFO:

Click to open spoiler
Exact Audio Copy V0.99 prebeta 4 from 23. January 2008

EAC extraction logfile from 16. July 2008, 20:10

Mad Caddies / Quality Soft Core

Used drive : SONY DVD+-RW DW-D56A Adapter: 1 ID: 0

Read mode : Secure
Utilize accurate stream : Yes
Defeat audio cache : Yes
Make use of C2 pointers : No

Read offset correction : 12
Overread into Lead-In and Lead-Out : No
Fill up missing offset samples with silence : Yes
Delete leading and trailing silent blocks : No
Null samples used in CRC calculations : Yes
Used interface : Native Win32 interface for Win NT & 2000
Gap handling : Not detected, thus appended to previous track

Used output format : Internal WAV Routines
Sample format : 44.100 Hz; 16 Bit; Stereo

TOC of the extracted CD

Track | Start | Length | Start sector | End sector
———————————————————
1 | 0:00.00 | 4:10.12 | 0 | 18761
2 | 4:10.12 | 3:49.65 | 18762 | 36001
3 | 8:00.02 | 1:44.30 | 36002 | 43831
4 | 9:44.32 | 2:42.53 | 43832 | 56034
5 | 12:27.10 | 2:41.33 | 56035 | 68142
6 | 15:08.43 | 1:57.15 | 68143 | 76932
7 | 17:05.58 | 1:24.71 | 76933 | 83303
8 | 18:30.54 | 3:26.24 | 83304 | 98777
9 | 21:57.03 | 3:20.72 | 98778 | 113849
10 | 25:18.00 | 2:20.53 | 113850 | 124402
11 | 27:38.53 | 2:35.33 | 124403 | 136060
12 | 30:14.11 | 1:38.30 | 136061 | 143440
13 | 31:52.41 | 4:51.12 | 143441 | 165277

Track 1

Filename C:\Documents and Settings\Ben\Desktop\Mad Caddies\Quality Soft Core\01 – I’m So Alone.wav

Peak level 99.9 %
Track quality 100.0 %
Test CRC 618B73C7
Copy CRC 618B73C7
Accurately ripped (confidence 8) [08AEF65A]
Copy OK

Track 2

Filename C:\Documents and Settings\Ben\Desktop\Mad Caddies\Quality Soft Core\02 – Distress.wav

Peak level 99.9 %
Track quality 100.0 %
Test CRC F6C4EFF0
Copy CRC F6C4EFF0
Accurately ripped (confidence 8) [FA60AB62]
Copy OK

Track 3

Filename C:\Documents and Settings\Ben\Desktop\Mad Caddies\Quality Soft Core\03 – Cup O’ Tea.wav

Peak level 99.9 %
Track quality 100.0 %
Test CRC FB30D4AA
Copy CRC FB30D4AA
Accurately ripped (confidence 8) [4A91DA2D]
Copy OK

Track 4

Filename C:\Documents and Settings\Ben\Desktop\Mad Caddies\Quality Soft Core\04 – The Bell Tower.wav

Peak level 99.9 %
Track quality 99.9 %
Test CRC 68FDDBB5
Copy CRC 68FDDBB5
Accurately ripped (confidence 8) [8139584F]
Copy OK

Track 5

Filename C:\Documents and Settings\Ben\Desktop\Mad Caddies\Quality Soft Core\05 – No Se.wav

Peak level 99.9 %
Track quality 100.0 %
Test CRC 4EE6FB6D
Copy CRC 4EE6FB6D
Accurately ripped (confidence 8) [B545776C]
Copy OK

Track 6

Filename C:\Documents and Settings\Ben\Desktop\Mad Caddies\Quality Soft Core\06 – Crew Cut Chuck.wav

Peak level 99.9 %
Track quality 99.9 %
Test CRC E1645459
Copy CRC E1645459
Accurately ripped (confidence 8) [C75F8926]
Copy OK

Track 7

Filename C:\Documents and Settings\Ben\Desktop\Mad Caddies\Quality Soft Core\07 – Goleta.wav

Peak level 99.9 %
Track quality 100.0 %
Test CRC 975F9ADD
Copy CRC 975F9ADD
Accurately ripped (confidence 8) [A5233C2D]
Copy OK

Track 8

Filename C:\Documents and Settings\Ben\Desktop\Mad Caddies\Quality Soft Core\08 – Big Brother.wav

Peak level 99.9 %
Track quality 100.0 %
Test CRC 7FC31942
Copy CRC 7FC31942
Accurately ripped (confidence 8) [092A3894]
Copy OK

Track 9

Filename C:\Documents and Settings\Ben\Desktop\Mad Caddies\Quality Soft Core\09 – L.G.’s.wav

Peak level 99.9 %
Track quality 100.0 %
Test CRC DE8D5C7E
Copy CRC DE8D5C7E
Accurately ripped (confidence 8) [291659C3]
Copy OK

Track 10

Filename C:\Documents and Settings\Ben\Desktop\Mad Caddies\Quality Soft Core\10 – Polyester Khakis.wav

Peak level 99.9 %
Track quality 100.0 %
Test CRC 531E73C2
Copy CRC 531E73C2
Accurately ripped (confidence 8) [E81E9D80]
Copy OK

Track 11

Filename C:\Documents and Settings\Ben\Desktop\Mad Caddies\Quality Soft Core\11 – Preppie Girl.wav

Peak level 99.9 %
Track quality 100.0 %
Test CRC 09CE91AF
Copy CRC 09CE91AF
Accurately ripped (confidence 8) [60CBB83B]
Copy OK

Track 12

Filename C:\Documents and Settings\Ben\Desktop\Mad Caddies\Quality Soft Core\12 – Mum’s The Word.wav

Peak level 99.9 %
Track quality 100.0 %
Test CRC A2ECEC06
Copy CRC A2ECEC06
Accurately ripped (confidence 8) [C107BFDB]
Copy OK

Track 13

Filename C:\Documents and Settings\Ben\Desktop\Mad Caddies\Quality Soft Core\13 – Sad Reggie.wav

Peak level 99.9 %
Track quality 100.0 %
Test CRC B23A25B9
Copy CRC B23A25B9
Accurately ripped (confidence 8) [6636927F]
Copy OK

All tracks accurately ripped

No errors occurred

End of status report

REM GENRE Ska
REM DATE 1997
REM DISCID 9B089B0D
REM COMMENT “ExactAudioCopy v0.99pb4”
PERFORMER “Mad Caddies”
TITLE “Quality Soft Core”
FILE “Mad Caddies\Quality Soft Core\01 – I’m So Alone.wav” WAVE
TRACK 01 AUDIO
TITLE “I’m So Alone”
PERFORMER “Mad Caddies”
FLAGS DCP
INDEX 01 00:00:00
TRACK 02 AUDIO
TITLE “Distress”
PERFORMER “Mad Caddies”
FLAGS DCP
INDEX 00 04:08:42
FILE “Mad Caddies\Quality Soft Core\02 – Distress.wav” WAVE
INDEX 01 00:00:00
FILE “Mad Caddies\Quality Soft Core\03 – Cup O’ Tea.wav” WAVE
TRACK 03 AUDIO
TITLE “Cup O’ Tea”
PERFORMER “Mad Caddies”
FLAGS DCP
INDEX 01 00:00:00
TRACK 04 AUDIO
TITLE “The Bell Tower”
PERFORMER “Mad Caddies”
FLAGS DCP
INDEX 00 01:42:60
FILE “Mad Caddies\Quality Soft Core\04 – The Bell Tower.wav” WAVE
INDEX 01 00:00:00
TRACK 05 AUDIO
TITLE “No Se”
PERFORMER “Mad Caddies”
FLAGS DCP
INDEX 00 02:42:08
FILE “Mad Caddies\Quality Soft Core\05 – No Se.wav” WAVE
INDEX 01 00:00:00
FILE “Mad Caddies\Quality Soft Core\06 – Crew Cut Chuck.wav” WAVE
TRACK 06 AUDIO
TITLE “Crew Cut Chuck”
PERFORMER “Mad Caddies”
FLAGS DCP
INDEX 01 00:00:00
TRACK 07 AUDIO
TITLE “Goleta”
PERFORMER “Mad Caddies”
FLAGS DCP
INDEX 00 01:55:45
FILE “Mad Caddies\Quality Soft Core\07 – Goleta.wav” WAVE
INDEX 01 00:00:00
TRACK 08 AUDIO
TITLE “Big Brother”
PERFORMER “Mad Caddies”
FLAGS DCP
INDEX 00 01:24:26
FILE “Mad Caddies\Quality Soft Core\08 – Big Brother.wav” WAVE
INDEX 01 00:00:00
FILE “Mad Caddies\Quality Soft Core\09 – L.G.’s.wav” WAVE
TRACK 09 AUDIO
TITLE “L.G.’s”
PERFORMER “Mad Caddies”
FLAGS DCP
INDEX 01 00:00:00
TRACK 10 AUDIO
TITLE “Polyester Khakis”
PERFORMER “Mad Caddies”
FLAGS DCP
INDEX 00 03:19:27
FILE “Mad Caddies\Quality Soft Core\10 – Polyester Khakis.wav” WAVE
INDEX 01 00:00:00
TRACK 11 AUDIO
TITLE “Preppie Girl”
PERFORMER “Mad Caddies”
FLAGS DCP
INDEX 00 02:20:08
FILE “Mad Caddies\Quality Soft Core\11 – Preppie Girl.wav” WAVE
INDEX 01 00:00:00
FILE “Mad Caddies\Quality Soft Core\12 – Mum’s The Word.wav” WAVE
TRACK 12 AUDIO
TITLE “Mum’s The Word”
PERFORMER “Mad Caddies”
FLAGS DCP
INDEX 01 00:00:00
TRACK 13 AUDIO
TITLE “Sad Reggie”
PERFORMER “Mad Caddies”
FLAGS DCP
INDEX 00 01:36:60
FILE “Mad Caddies\Quality Soft Core\13 – Sad Reggie.wav” WAVE
INDEX 01 00:00:00


Leave a Reply

Your email address will not be published. Required fields are marked *

This site uses Akismet to reduce spam. Learn how your comment data is processed.