Mad Caddies – Keep It Going




Artist: Mad Caddies
Year: 2007
Genre: Ska
Notes: Discogs
Add. Notes:
Cover incl.: No
Encoder: FLAC
Bitrate: ~900 kBit/s (44.1 kHz/16 Bit/s)
Log & Cue incl.: Yes
Size: 308,1 MB
Password: “slam” (without ” “)


All Downloads/Hosters are compatible

Download 1
Turbobit.net
Rapidgator.net
KatFile.com
UploadRar.com
Download 2
Turbobit.net
Rapidgator.net
KatFile.com
UploadRar.com
Download 3
Turbobit.net
Rapidgator.net
KatFile.com
UploadRar.com

Tracklist:

1 - The Dirge - 1:54
2 - Backyard - 3:03
3 - State Of Mind - 3:46
4 - Today - 2:39
5 - Without You - 3:07
6 - Reflections - 3:12
7 - Lay Your Head Down - 3:28
8 - Tired Bones - 2:53
9 - Coyote - 4:09
10 - Don't Go - 3:00
11 - Pyramid Scheme - 2:27
12 - Souls For Sale - 3:42
13 - Riding For A Fall - 4:39
14 - Whatcha Gonna Do - 3:08
15 - End Dirge - 4:02

EAC-Log, CUE-Sheed & NFO:

Click to open spoiler
EAC extraction logfile from 13. April 2007, 10:52 for CD
Mad Caddies / Keep It Going

Used drive : HL-DT-STDVDRAM GSA-4163B Adapter: 0 ID: 1
Read mode : Secure with NO C2, accurate stream, disable cache
Read offset correction : 6
Overread into Lead-In and Lead-Out : No

Used output format : C:\EAC\FLAC\bin\flac.exe (User Defined Encoder)
320 kBit/s
Additional command line options : -V -8 -T “artist=%a” -T “title=%t” -T “album=%g” -T “date=%y” -T “tracknumber=%n” -T “genre=%m” %s

Other options :
Fill up missing offset samples with silence : Yes
Delete leading and trailing silent blocks : No
Native Win32 interface for Win NT & 2000

Track 1
Filename G:\OINK\Mad Caddies – Keep It Going [FLAC]\01 – The Dirge.wav

Pre-gap length 0:00:02.00

Peak level 100.0 %
Track quality 100.0 %
Test CRC 4405ABDC
Copy CRC 4405ABDC
Copy OK

Track 2
Filename G:\OINK\Mad Caddies – Keep It Going [FLAC]\02 – Backyard.wav

Peak level 100.0 %
Track quality 100.0 %
Test CRC 357F3654
Copy CRC 357F3654
Copy OK

Track 3
Filename G:\OINK\Mad Caddies – Keep It Going [FLAC]\03 – State Of Mind.wav

Peak level 100.0 %
Track quality 100.0 %
Test CRC E53C0CFF
Copy CRC E53C0CFF
Copy OK

Track 4
Filename G:\OINK\Mad Caddies – Keep It Going [FLAC]\04 – Today.wav

Peak level 99.8 %
Track quality 100.0 %
Test CRC 1B11BDB9
Copy CRC 1B11BDB9
Copy OK

Track 5
Filename G:\OINK\Mad Caddies – Keep It Going [FLAC]\05 – Without You.wav

Peak level 100.0 %
Track quality 100.0 %
Test CRC 6F2BD6B6
Copy CRC 6F2BD6B6
Copy OK

Track 6
Filename G:\OINK\Mad Caddies – Keep It Going [FLAC]\06 – Reflections.wav

Peak level 100.0 %
Track quality 100.0 %
Test CRC 752327AF
Copy CRC 752327AF
Copy OK

Track 7
Filename G:\OINK\Mad Caddies – Keep It Going [FLAC]\07 – Lay Your Head Down.wav

Peak level 100.0 %
Track quality 100.0 %
Test CRC 260E6788
Copy CRC 260E6788
Copy OK

Track 8
Filename G:\OINK\Mad Caddies – Keep It Going [FLAC]\08 – Tired Bones.wav

Pre-gap length 0:00:00.34

Peak level 100.0 %
Track quality 100.0 %
Test CRC 9FDE5CB3
Copy CRC 9FDE5CB3
Copy OK

Track 9
Filename G:\OINK\Mad Caddies – Keep It Going [FLAC]\09 – Coyote.wav

Pre-gap length 0:00:01.13

Peak level 100.0 %
Track quality 99.9 %
Test CRC 05FC7A5E
Copy CRC 05FC7A5E
Copy OK

Track 10
Filename G:\OINK\Mad Caddies – Keep It Going [FLAC]\10 – Don’t Go.wav

Pre-gap length 0:00:00.54

Peak level 100.0 %
Track quality 100.0 %
Test CRC 8EA51A78
Copy CRC 8EA51A78
Copy OK

Track 11
Filename G:\OINK\Mad Caddies – Keep It Going [FLAC]\11 – Pyramid Sheme.wav

Peak level 100.0 %
Track quality 100.0 %
Test CRC 64FB290E
Copy CRC 64FB290E
Copy OK

Track 12
Filename G:\OINK\Mad Caddies – Keep It Going [FLAC]\12 – Souls For Sale.wav

Peak level 100.0 %
Track quality 99.9 %
Test CRC 311A1BA2
Copy CRC 311A1BA2
Copy OK

Track 13
Filename G:\OINK\Mad Caddies – Keep It Going [FLAC]\13 – Riding For A Fall.wav

Pre-gap length 0:00:02.00

Peak level 100.0 %
Track quality 100.0 %
Test CRC FA2B170E
Copy CRC FA2B170E
Copy OK

Track 14
Filename G:\OINK\Mad Caddies – Keep It Going [FLAC]\14 – Watcha Gonna Do.wav

Pre-gap length 0:00:01.21

Peak level 100.0 %
Track quality 100.0 %
Test CRC 36E82EBF
Copy CRC 36E82EBF
Copy OK

Track 15
Filename G:\OINK\Mad Caddies – Keep It Going [FLAC]\15 – End Dirge.wav

Peak level 82.9 %
Track quality 100.0 %
Test CRC 4DEA321B
Copy CRC 4DEA321B
Copy OK

No errors occured

End of status report

REM GENRE Rock
REM DATE 2005
REM DISCID CE0B8B0F
REM COMMENT “ExactAudioCopy v0.95b4”
PERFORMER “Mad Caddies”
TITLE “Keep It Going”
FILE “01 – The Dirge.wav” WAVE
TRACK 01 AUDIO
TITLE “The Dirge”
PERFORMER “Mad Caddies”
INDEX 01 00:00:00
FILE “02 – Backyard.wav” WAVE
TRACK 02 AUDIO
TITLE “Backyard”
PERFORMER “Mad Caddies”
INDEX 01 00:00:00
FILE “03 – State Of Mind.wav” WAVE
TRACK 03 AUDIO
TITLE “State Of Mind”
PERFORMER “Mad Caddies”
INDEX 01 00:00:00
FILE “04 – Today.wav” WAVE
TRACK 04 AUDIO
TITLE “Today”
PERFORMER “Mad Caddies”
INDEX 01 00:00:00
FILE “05 – Without You.wav” WAVE
TRACK 05 AUDIO
TITLE “Without You”
PERFORMER “Mad Caddies”
INDEX 01 00:00:00
FILE “06 – Reflections.wav” WAVE
TRACK 06 AUDIO
TITLE “Reflections”
PERFORMER “Mad Caddies”
INDEX 01 00:00:00
FILE “07 – Lay Your Head Down.wav” WAVE
TRACK 07 AUDIO
TITLE “Lay Your Head Down”
PERFORMER “Mad Caddies”
INDEX 01 00:00:00
TRACK 08 AUDIO
TITLE “Tired Bones”
PERFORMER “Mad Caddies”
INDEX 00 03:28:16
FILE “08 – Tired Bones.wav” WAVE
INDEX 01 00:00:00
TRACK 09 AUDIO
TITLE “Coyote”
PERFORMER “Mad Caddies”
INDEX 00 02:52:36
FILE “09 – Coyote.wav” WAVE
INDEX 01 00:00:00
TRACK 10 AUDIO
TITLE “Don’t Go”
PERFORMER “Mad Caddies”
INDEX 00 04:09:36
FILE “10 – Don’t Go.wav” WAVE
INDEX 01 00:00:00
FILE “11 – Pyramid Sheme.wav” WAVE
TRACK 11 AUDIO
TITLE “Pyramid Sheme”
PERFORMER “Mad Caddies”
INDEX 01 00:00:00
FILE “12 – Souls For Sale.wav” WAVE
TRACK 12 AUDIO
TITLE “Souls For Sale”
PERFORMER “Mad Caddies”
INDEX 01 00:00:00
TRACK 13 AUDIO
TITLE “Riding For A Fall”
PERFORMER “Mad Caddies”
INDEX 00 03:40:10
FILE “13 – Riding For A Fall.wav” WAVE
INDEX 01 00:00:00
TRACK 14 AUDIO
TITLE “Watcha Gonna Do”
PERFORMER “Mad Caddies”
INDEX 00 04:38:29
FILE “14 – Watcha Gonna Do.wav” WAVE
INDEX 01 00:00:00
FILE “15 – End Dirge.wav” WAVE
TRACK 15 AUDIO
TITLE “End Dirge”
PERFORMER “Mad Caddies”
INDEX 01 00:00:00


Leave a Reply

Your email address will not be published. Required fields are marked *

This site uses Akismet to reduce spam. Learn how your comment data is processed.