Mad Caddies – Just One More




Artist: Mad Caddies
Year: 2003
Genre: Rock
Notes: Discogs
Add. Notes:
Cover incl.: Yes
Encoder: FLAC
Bitrate: ~1000 kBit/s (44.1 kHz/16 Bit/s)
Log & Cue incl.: Yes
Size: 330,71 MB
Password: “slam” (without ” “)


All Downloads/Hosters are compatible

Download 1
Turbobit.net
Rapidgator.net
UploadEver.com
KatFile.com
UsersDrive.com
Download 2
Turbobit.net
Rapidgator.net
UploadEver.com
KatFile.com
UsersDrive.com
Download 3
Turbobit.net
Rapidgator.net
UploadEver.com
KatFile.com
UsersDrive.com

Tracklist:

1 - Drinking For 11 - 3:55
2 - Contraband - 1:19
3 - Villains - 2:14
4 - Silence - 2:49
5 - Just One More - 3:26
6 - Day By Day - 2:47
7 - Leavin' - 2:59
8 - Rockupation - 3:04
9 - Last Breath - 3:21
10 - Spare Change? - 3:09
11 - Riot - 2:28
12 - 10 West - 3:05
13 - Good Intentions - 3:03
14 - Wet Dog - 3:09
15 - Game Show - 3:19

EAC-Log, CUE-Sheed & NFO:

Click to open spoiler
EAC extraction logfile from 18. June 2007, 16:31 for CD
Mad Caddies / Just One More

Used drive : ASUS DRW-1608P3S Adapter: 1 ID: 0
Read mode : Secure with NO C2, accurate stream, disable cache
Read offset correction : 48
Overread into Lead-In and Lead-Out : No

Used output format : Internal WAV Routines
44.100 Hz; 16 Bit; Stereo

Other options :
Fill up missing offset samples with silence : Yes
Delete leading and trailing silent blocks : No
Installed external ASPI interface

Range status and errors
Selected range
Filename C:\Mad Caddies – Just One More\Mad Caddies – Just One More.wav

Peak level 98.8 %
Range quality 100.0 %
CRC 599813AA
Copy OK

No errors occured

End of status report

————————————————————

EAC extraction logfile from 18. June 2007, 16:31 for CD
Mad Caddies / Just One More

Used drive : ASUS DRW-1608P3S Adapter: 1 ID: 0
Read mode : Secure with NO C2, accurate stream, disable cache
Read offset correction : 48
Overread into Lead-In and Lead-Out : No

Used output format : Internal WAV Routines
44.100 Hz; 16 Bit; Stereo

Other options :
Fill up missing offset samples with silence : Yes
Delete leading and trailing silent blocks : No
Installed external ASPI interface

Range status and errors
Selected range
Filename C:\Mad Caddies – Just One More\Mad Caddies – Just One More.wav

Peak level 98.8 %
Range quality 100.0 %
CRC 599813AA
Copy OK

No errors occured

End of status report

REM GENRE Rock
REM DATE 2003
REM DISCID D40A5F0F
REM COMMENT “ExactAudioCopy v0.95b4”
PERFORMER “Mad Caddies”
TITLE “Just One More”
FILE “Mad Caddies – Just One More.flac” WAVE
TRACK 01 AUDIO
TITLE “Drinking For 11”
PERFORMER “Mad Caddies”
INDEX 01 00:00:00
TRACK 02 AUDIO
TITLE “Contraband”
PERFORMER “Mad Caddies”
INDEX 01 03:55:54
TRACK 03 AUDIO
TITLE “Villains”
PERFORMER “Mad Caddies”
INDEX 01 05:14:70
TRACK 04 AUDIO
TITLE “Silence”
PERFORMER “Mad Caddies”
INDEX 01 07:29:52
TRACK 05 AUDIO
TITLE “Just One More”
PERFORMER “Mad Caddies”
INDEX 01 10:18:51
TRACK 06 AUDIO
TITLE “Day By Day”
PERFORMER “Mad Caddies”
INDEX 01 13:45:05
TRACK 07 AUDIO
TITLE “Leavin”
PERFORMER “Mad Caddies”
INDEX 01 16:32:16
TRACK 08 AUDIO
TITLE “Rockupation”
PERFORMER “Mad Caddies”
INDEX 01 19:32:00
TRACK 09 AUDIO
TITLE “Last Breath”
PERFORMER “Mad Caddies”
INDEX 01 22:36:19
TRACK 10 AUDIO
TITLE “Spare Change?”
PERFORMER “Mad Caddies”
INDEX 01 25:58:11
TRACK 11 AUDIO
TITLE “Riot”
PERFORMER “Mad Caddies”
INDEX 01 29:08:02
TRACK 12 AUDIO
TITLE “10 West”
PERFORMER “Mad Caddies”
INDEX 01 31:36:46
TRACK 13 AUDIO
TITLE “Good Intentions”
PERFORMER “Mad Caddies”
INDEX 01 34:42:23
TRACK 14 AUDIO
TITLE “Wet Dog”
PERFORMER “Mad Caddies”
INDEX 01 37:46:19
TRACK 15 AUDIO
TITLE “Game Show”
PERFORMER “Mad Caddies”
INDEX 01 40:55:36


Leave a Reply

Your email address will not be published. Required fields are marked *

This site uses Akismet to reduce spam. Learn how your comment data is processed.