Mad Caddies – Duck and Cover




Artist: Mad Caddies
Year: 1998
Genre: Punk
Notes: Discogs
Add. Notes:
Cover incl.: No
Encoder: FLAC
Bitrate: ~1100 kBit/s (44.1 kHz/16 Bit/s)
Log & Cue incl.: Yes
Size: 260,93 MB
Password: “slam” (without ” “)


All Downloads/Hosters are compatible

Download 1
Turbobit.net
KatFile.com
Rapidgator.net
NitroFlare.com
Download 2
Turbobit.net
KatFile.com
Rapidgator.net
NitroFlare.com

Tracklist:

1 - Road Rash - 2:01
2 - The Gentleman - 2:15
3 - No Hope - 1:26
4 - One Shot - 4:52
5 - Macho Nachos - 3:17
6 - Monkeys - 2:45
7 - Econoline - 2:14
8 - The Joust - 3:46
9 - Betty - 3:21
10 - aPathetic - 2:14
11 - Medium Unwell - 3:03
12 - Popcorn - 3:53

EAC-Log, CUE-Sheed & NFO:

Click to open spoiler
Exact Audio Copy V0.99 prebeta 4 from 23. January 2008

EAC extraction logfile from 20. October 2008, 18:49

Mad Caddies / Duck And Cover

Used drive : SONY DVD RW DRU-840A Adapter: 0 ID: 0

Read mode : Secure
Utilize accurate stream : Yes
Defeat audio cache : Yes
Make use of C2 pointers : No

Read offset correction : 6
Overread into Lead-In and Lead-Out : No
Fill up missing offset samples with silence : Yes
Delete leading and trailing silent blocks : No
Null samples used in CRC calculations : Yes
Used interface : Native Win32 interface for Win NT & 2000
Gap handling : Appended to previous track

Used output format : User Defined Encoder
Selected bitrate : 128 kBit/s
Quality : High
Add ID3 tag : No
Command line compressor : e:\Program Files\FLAC\flac.exe
Additional command line options : -V -8 -T “artist=%a” -T “title=%t” -T “album=%g” -T “date=%y” -T “tracknumber=%n” -T “genre=%m” %s

TOC of the extracted CD

Track | Start | Length | Start sector | End sector
———————————————————
1 | 0:00.00 | 2:01.50 | 0 | 9124
2 | 2:01.50 | 2:15.05 | 9125 | 19254
3 | 4:16.55 | 1:26.05 | 19255 | 25709
4 | 5:42.60 | 4:52.60 | 25710 | 47669
5 | 10:35.45 | 3:17.45 | 47670 | 62489
6 | 13:53.15 | 2:45.40 | 62490 | 74904
7 | 16:38.55 | 2:14.70 | 74905 | 85024
8 | 18:53.50 | 3:46.33 | 85025 | 102007
9 | 22:40.08 | 3:21.50 | 102008 | 117132
10 | 26:01.58 | 2:14.60 | 117133 | 127242
11 | 28:16.43 | 3:03.60 | 127243 | 141027
12 | 31:20.28 | 3:53.22 | 141028 | 158524

Track 1

Filename C:\DOWNLOAD\#music\#rips\Mad Caddies – Duck And Cover\01 – Road Rash.wav

Pre-gap length 0:00:02.00

Peak level 97.1 %
Track quality 100.0 %
Copy CRC 0610D56A
Copy OK

Track 2

Filename C:\DOWNLOAD\#music\#rips\Mad Caddies – Duck And Cover\02 – The Gentleman.wav

Pre-gap length 0:00:01.53

Peak level 96.7 %
Track quality 99.7 %
Copy CRC E237A980
Copy OK

Track 3

Filename C:\DOWNLOAD\#music\#rips\Mad Caddies – Duck And Cover\03 – No Hope.wav

Peak level 97.1 %
Track quality 99.8 %
Copy CRC 58D70B2B
Copy OK

Track 4

Filename C:\DOWNLOAD\#music\#rips\Mad Caddies – Duck And Cover\04 – One Shot.wav

Peak level 97.1 %
Track quality 99.7 %
Copy CRC F3F5579C
Copy OK

Track 5

Filename C:\DOWNLOAD\#music\#rips\Mad Caddies – Duck And Cover\05 – Macho Nachos.wav

Pre-gap length 0:00:01.02

Peak level 97.2 %
Track quality 99.7 %
Copy CRC 17D1BFDE
Copy OK

Track 6

Filename C:\DOWNLOAD\#music\#rips\Mad Caddies – Duck And Cover\06 – Monkeys.wav

Peak level 97.2 %
Track quality 99.9 %
Copy CRC 2ECDBD46
Copy OK

Track 7

Filename C:\DOWNLOAD\#music\#rips\Mad Caddies – Duck And Cover\07 – Econoline.wav

Pre-gap length 0:00:01.02

Peak level 97.1 %
Track quality 99.9 %
Copy CRC C7201416
Copy OK

Track 8

Filename C:\DOWNLOAD\#music\#rips\Mad Caddies – Duck And Cover\08 – The Joust.wav

Pre-gap length 0:00:01.16

Peak level 97.0 %
Track quality 99.7 %
Copy CRC 0B352CB3
Copy OK

Track 9

Filename C:\DOWNLOAD\#music\#rips\Mad Caddies – Duck And Cover\09 – Betty.wav

Peak level 96.8 %
Track quality 99.7 %
Copy CRC FF9A4D8C
Copy OK

Track 10

Filename C:\DOWNLOAD\#music\#rips\Mad Caddies – Duck And Cover\10 – aPathetic.wav

Peak level 96.6 %
Track quality 99.8 %
Copy CRC 29AE24B1
Copy OK

Track 11

Filename C:\DOWNLOAD\#music\#rips\Mad Caddies – Duck And Cover\11 – Medium Unwell.wav

Pre-gap length 0:00:01.50

Peak level 97.1 %
Track quality 99.7 %
Copy CRC 0F0250E7
Copy OK

Track 12

Filename C:\DOWNLOAD\#music\#rips\Mad Caddies – Duck And Cover\12 – Popcorn.wav

Peak level 97.1 %
Track quality 99.6 %
Copy CRC C3CD56F2
Copy OK

No errors occurred

End of status report

REM GENRE Ska
REM DATE 1998
REM DISCID 9308410C
REM COMMENT “ExactAudioCopy v0.99pb4”
PERFORMER “Mad Caddies”
TITLE “Duck And Cover”
FILE “Mad Caddies – Duck And Cover\01 – Road Rash.wav” WAVE
TRACK 01 AUDIO
TITLE “Road Rash”
PERFORMER “Mad Caddies”
INDEX 01 00:00:00
TRACK 02 AUDIO
TITLE “The Gentleman”
PERFORMER “Mad Caddies”
INDEX 00 02:00:10
FILE “Mad Caddies – Duck And Cover\02 – The Gentleman.wav” WAVE
INDEX 01 00:00:00
FILE “Mad Caddies – Duck And Cover\03 – No Hope.wav” WAVE
TRACK 03 AUDIO
TITLE “No Hope”
PERFORMER “Mad Caddies”
INDEX 01 00:00:00
FILE “Mad Caddies – Duck And Cover\04 – One Shot.wav” WAVE
TRACK 04 AUDIO
TITLE “One Shot”
PERFORMER “Mad Caddies”
INDEX 01 00:00:00
TRACK 05 AUDIO
TITLE “Macho Nachos”
PERFORMER “Mad Caddies”
INDEX 00 04:51:58
FILE “Mad Caddies – Duck And Cover\05 – Macho Nachos.wav” WAVE
INDEX 01 00:00:00
FILE “Mad Caddies – Duck And Cover\06 – Monkeys.wav” WAVE
TRACK 06 AUDIO
TITLE “Monkeys”
PERFORMER “Mad Caddies”
INDEX 01 00:00:00
TRACK 07 AUDIO
TITLE “Econoline”
PERFORMER “Mad Caddies”
INDEX 00 02:44:38
FILE “Mad Caddies – Duck And Cover\07 – Econoline.wav” WAVE
INDEX 01 00:00:00
TRACK 08 AUDIO
TITLE “The Joust”
PERFORMER “Mad Caddies”
INDEX 00 02:13:58
FILE “Mad Caddies – Duck And Cover\08 – The Joust.wav” WAVE
INDEX 01 00:00:00
FILE “Mad Caddies – Duck And Cover\09 – Betty.wav” WAVE
TRACK 09 AUDIO
TITLE “Betty”
PERFORMER “Mad Caddies”
INDEX 01 00:00:00
FILE “Mad Caddies – Duck And Cover\10 – aPathetic.wav” WAVE
TRACK 10 AUDIO
TITLE “aPathetic”
PERFORMER “Mad Caddies”
INDEX 01 00:00:00
TRACK 11 AUDIO
TITLE “Medium Unwell”
PERFORMER “Mad Caddies”
INDEX 00 02:13:22
FILE “Mad Caddies – Duck And Cover\11 – Medium Unwell.wav” WAVE
INDEX 01 00:00:00
FILE “Mad Caddies – Duck And Cover\12 – Popcorn.wav” WAVE
TRACK 12 AUDIO
TITLE “Popcorn”
PERFORMER “Mad Caddies”
INDEX 01 00:00:00


Leave a Reply

Your email address will not be published. Required fields are marked *

This site uses Akismet to reduce spam. Learn how your comment data is processed.