Mac DeMarco – Here Comes The Cowboy




Artist: Mac DeMarco
Year: 2019
Genre: Rock
Notes: Discogs
Add. Notes:
Encoder: FLAC
Bitrate: ~1400 kBit/s (44.1 kHz/24 Bit/s)
Bin/Cue incl.: No
Size: 468,89 MB
Password: “slam” (without ” “)


http://www.share-online.biz/dl/21763PRP5TO
https://rapidgator.net/file/05410e6950c757df7cd24471349d42e4
https://uploadbyte.com/mm9b0iosl19r

Tracklist:

Here Comes The Cowboy 	
Nobody 	
Finally Alone 	
Little Dogs March 	
Preoccupied 	
Choo Choo 	
K 	
Heart To Heart 	
Hey Cowgirl 	
On The Square 	
All Of Our Yesterdays 	
Skyless Moon 	
Baby Bye Bye

EAC-Log, CUE-Sheed & NFO:

Click to open spoiler
foobar2000 1.4 / Dynamic Range Meter 1.1.1
log date: 2019-05-10 05:55:58

——————————————————————————–
Analyzed: Mac DeMarco / Here Comes The Cowboy
——————————————————————————–

DR Peak RMS Duration Track
——————————————————————————–
DR17 -0.70 dB -20.34 dB 3:00 01-Here Comes The Cowboy
DR11 -0.70 dB -12.88 dB 3:32 02-Nobody
DR9 -0.70 dB -11.47 dB 2:25 03-Finally Alone
DR10 -0.70 dB -12.58 dB 2:29 04-Little Dogs March
DR12 -0.70 dB -15.20 dB 4:00 05-Preoccupied
DR11 -0.70 dB -14.12 dB 2:39 06-Choo Choo
DR13 -1.31 dB -17.21 dB 3:33 07-K
DR12 -0.70 dB -13.27 dB 3:31 08-Heart To Heart
DR11 -0.70 dB -13.86 dB 2:16 09-Hey Cowgirl
DR12 -0.70 dB -14.02 dB 3:29 10-On The Square
DR10 -0.70 dB -13.07 dB 4:04 11-All Of Our Yesterdays
DR11 -0.70 dB -14.92 dB 4:05 12-Skyless Moon
DR12 -0.70 dB -15.76 dB 7:29 13-Baby Bye Bye
——————————————————————————–

Number of tracks: 13
Official DR value: DR12
Samplerate: 44100 Hz
Channels: 2
Bits per sample: 24
Bitrate: 1498 kbps
Codec: FLAC
================================================================================

Leave a Reply

Your email address will not be published. Required fields are marked *

This site uses Akismet to reduce spam. Learn how your comment data is processed.