Lou Reed & Metallica – Lulu (Japanese Edition)




Artist: Lou Reed & Metallica
Year: 2011
Genre: Metal
Notes: Discogs
Add. Notes: Japanese Edition
Cover incl.: Yes
Encoder: FLAC
Bitrate: ~800 kBit/s (44.1 kHz/16 Bit/s)
Log & Cue incl.: Yes
Size: 603,29 MB
Password: “slam” (without ” “)


All Downloads/Hosters are compatible

Download 1
Turbobit.net
Rapidgator.net
UploadEver.com
KatFile.com
UsersDrive.com
Download 2
Turbobit.net
Rapidgator.net
UploadEver.com
KatFile.com
UsersDrive.com
Download 3
Turbobit.net
Rapidgator.net
UploadEver.com
KatFile.com
UsersDrive.com

Tracklist:

1-1 - Brandenburg Gate - 4:19
1-2 - The View - 5:17
1-3 - Pumping Blood - 7:24
1-4 - Mistress Dread - 6:51
1-5 - Iced Honey - 4:36
1-6 - Cheat On Me - 11:26
2-1 - Frustration - 8:34
2-2 - Little Dog - 8:01
2-3 - Dragon - 11:08
2-4 - Junior Dad - 19:29

EAC-Log, CUE-Sheed & NFO:

Click to open spoiler
Exact Audio Copy V0.99 prebeta 5 from 4. May 2009

EAC extraction logfile from 1. December 2011, 1:51

Lou Reed & Metallica / Lulu (Disc 1) [SHM-CD, UICR-1093]

Used drive : PLEXTOR DVDR PX-760A Adapter: 0 ID: 0

Read mode : Secure
Utilize accurate stream : Yes
Defeat audio cache : Yes
Make use of C2 pointers : No

Read offset correction : 30
Overread into Lead-In and Lead-Out : No
Fill up missing offset samples with silence : Yes
Delete leading and trailing silent blocks : No
Null samples used in CRC calculations : Yes
Used interface : Native Win32 interface for Win NT & 2000

Used output format : User Defined Encoder
Selected bitrate : 1024 kBit/s
Quality : High
Add ID3 tag : No
Command line compressor : C:\Program Files (x86)\Exact Audio Copy\Flac\flac.exe
Additional command line options : -8 -V %s

TOC of the extracted CD

Track | Start | Length | Start sector | End sector
———————————————————
1 | 0:00.15 | 4:21.56 | 15 | 19645
2 | 4:21.71 | 5:20.40 | 19646 | 43685
3 | 9:42.36 | 7:24.10 | 43686 | 76995
4 | 17:06.46 | 6:52.42 | 76996 | 107937
5 | 23:59.13 | 4:37.46 | 107938 | 128758
6 | 28:36.59 | 11:26.15 | 128759 | 180223

Range status and errors

Selected range

Filename D:\bki71\Lou Reed & Metallica – Lulu (Disc 1) [SHM-CD, UICR-1093].wav

Peak level 100.0 %
Range quality 100.0 %
Test CRC 3F85DAF8
Copy CRC 3F85DAF8
Copy OK

No errors occurred

AccurateRip summary

Track 1 accurately ripped (confidence 11) [1C088188]
Track 2 accurately ripped (confidence 11) [2D458B6A]
Track 3 accurately ripped (confidence 11) [019599B0]
Track 4 accurately ripped (confidence 11) [A9AB3BA6]
Track 5 accurately ripped (confidence 11) [C4A1276C]
Track 6 accurately ripped (confidence 11) [C4C3A048]

All tracks accurately ripped

End of status report

Exact Audio Copy V0.99 prebeta 5 from 4. May 2009

EAC extraction logfile from 1. December 2011, 2:07

Lou Reed & Metallica / Lulu (Disc 2) [SHM-CD, UICR-1094]

Used drive : PLEXTOR DVDR PX-760A Adapter: 0 ID: 0

Read mode : Secure
Utilize accurate stream : Yes
Defeat audio cache : Yes
Make use of C2 pointers : No

Read offset correction : 30
Overread into Lead-In and Lead-Out : No
Fill up missing offset samples with silence : Yes
Delete leading and trailing silent blocks : No
Null samples used in CRC calculations : Yes
Used interface : Native Win32 interface for Win NT & 2000

Used output format : User Defined Encoder
Selected bitrate : 1024 kBit/s
Quality : High
Add ID3 tag : No
Command line compressor : C:\Program Files (x86)\Exact Audio Copy\Flac\flac.exe
Additional command line options : -8 -V %s

TOC of the extracted CD

Track | Start | Length | Start sector | End sector
———————————————————
1 | 0:00.15 | 8:33.68 | 15 | 38557
2 | 8:34.08 | 8:01.51 | 38558 | 74683
3 | 16:35.59 | 11:10.25 | 74684 | 124958
4 | 27:46.09 | 19:28.63 | 124959 | 212621

Range status and errors

Selected range

Filename D:\bki71\Lou Reed & Metallica – Lulu (Disc 2) [SHM-CD, UICR-1094].wav

Peak level 100.0 %
Range quality 100.0 %
Test CRC 0E30F9FE
Copy CRC 0E30F9FE
Copy OK

No errors occurred

AccurateRip summary

Track 1 accurately ripped (confidence 6) [BE8482F6]
Track 2 accurately ripped (confidence 6) [AECF8E05]
Track 3 accurately ripped (confidence 6) [881110F6]
Track 4 accurately ripped (confidence 6) [B8CE74A4]

All tracks accurately ripped

End of status report

REM GENRE Metal
REM DATE 2011
REM DISCID 44096206
REM COMMENT “ExactAudioCopy v0.99pb5”
PERFORMER “Lou Reed & Metallica”
TITLE “Lulu (Disc 1) [SHM-CD, UICR-1093]”
FILE “Lou Reed & Metallica – Lulu (Disc 1) [SHM-CD, UICR-1093].flac” WAVE
TRACK 01 AUDIO
TITLE “Brandenburg Gate”
PERFORMER “Lou Reed & Metallica”
INDEX 00 00:00:00
INDEX 01 00:00:15
TRACK 02 AUDIO
TITLE “The View”
PERFORMER “Lou Reed & Metallica”
INDEX 00 04:19:64
INDEX 01 04:21:71
TRACK 03 AUDIO
TITLE “Pumping Blood”
PERFORMER “Lou Reed & Metallica”
INDEX 00 09:39:31
INDEX 01 09:42:36
TRACK 04 AUDIO
TITLE “Mistress Dread”
PERFORMER “Lou Reed & Metallica”
INDEX 01 17:06:46
TRACK 05 AUDIO
TITLE “Iced Honey”
PERFORMER “Lou Reed & Metallica”
INDEX 00 23:58:08
INDEX 01 23:59:13
TRACK 06 AUDIO
TITLE “Cheat On Me”
PERFORMER “Lou Reed & Metallica”
INDEX 00 28:35:09
INDEX 01 28:36:59

REM GENRE Metal
REM DATE 2011
REM DISCID 3C0B1204
REM COMMENT “ExactAudioCopy v0.99pb5”
PERFORMER “Lou Reed & Metallica”
TITLE “Lulu (Disc 2) [SHM-CD, UICR-1094]”
FILE “Lou Reed & Metallica – Lulu (Disc 2) [SHM-CD, UICR-1094].flac” WAVE
TRACK 01 AUDIO
TITLE “Frustration”
PERFORMER “Lou Reed & Metallica”
INDEX 00 00:00:00
INDEX 01 00:00:15
TRACK 02 AUDIO
TITLE “Little Dog”
PERFORMER “Lou Reed & Metallica”
INDEX 01 08:34:08
TRACK 03 AUDIO
TITLE “Dragon”
PERFORMER “Lou Reed & Metallica”
INDEX 01 16:35:59
TRACK 04 AUDIO
TITLE “Junior Dad”
PERFORMER “Lou Reed & Metallica”
INDEX 00 27:43:72
INDEX 01 27:46:09

Leave a Reply

Your email address will not be published. Required fields are marked *

This site uses Akismet to reduce spam. Learn how your comment data is processed.