Linkin Park – Road To Revolution: Live At Milton Keynes




No Cover available

Artist: Linkin Park
Year: 2008
Genre: Metal
Notes: Discogs
Add. Notes:
Watch Songs on: YouTube
Cover incl.: Yes
Encoder: FLAC
Bitrate: ~1000 kBit/s (44.1 kHz/16 Bit/s)
Log & Cue incl.: Yes/Yes
Size: 565,9 MB
Password: “slam” (without ” “)


All Downloads/Hosters are compatible

Download 1
KatFile.com
Turbobit.net
Rapidgator.net
FileFactory.com
Download 2
KatFile.com
Turbobit.net
Rapidgator.net
FileFactory.com

Tracklist:

1 One Step Closer 4:07
2 From The Inside 3:25
3 No More Sorrow 5:06
4 Given Up 3:16
5 Lying From You 3:19
6 Hands Held High 1:27
7 Leave Out All The Rest 3:24
8 Numb 3:49
9 The Little Things Give You Away 7:20
10 Breaking The Habit 4:25
11 Shadow Of The Day 4:17
12 Crawling 4:58
13 In The End 3:50
14 Pushing Me Away 3:19
15 What I've Done 5:02
16 Numb/Encore 3:02
17 Jigga What/Faint 5:11
18 Bleed It Out 8:15

EAC-Log, CUE-Sheed & NFO:

Click to open spoiler
Exact Audio Copy V1.0 beta 3 from 29. August 2011

Отчёт EAC об извлечении, выполненном 27. августа 2012, 9:12

Linkin Park / Road To Revolution: Live At Milton Keynes

Дисковод: Optiarc DVD RW AD-7203A Adapter: 0 ID: 1

Режим чтения : Достоверность
Использование точного потока : Да
Отключение кэша аудио : Да
Использование указателей C2 : Нет

Коррекция смещения при чтении : 48
Способность читать области Lead-in и Lead-out : Нет
Заполнение пропущенных сэмплов тишиной : Да
Удаление блоков с тишиной в начале и конце : Нет
При вычислениях CRC использовались нулевые сэмплы : Да
Интерфейс : Встроенный Win32-интерфейс для Win NT/2000
Обработка зазоров : Добавлено к предыдущему треку

Выходной формат : Пользовательский кодировщик
Выбранный битрейт : 768 kBit/s
Качество : Высокий
Добавление ID3-тега : Нет
Утилита сжатия : C:\Program Files\Exact Audio Copy\FLAC\FLAC.EXE
Дополнительные параметры : -6 -V -T “ARTIST=%artist%” -T “TITLE=%title%” -T “ALBUM=%albumtitle%” -T “DATE=%year%” -T “TRACKNUMBER=%tracknr%” -T “GENRE=%genre%” -T “COMMENT=%comment%” -T “BAND=%albuminterpret%” -T “ALBUMARTIST=%albuminterpret%” -T “COMPOSER=%composer%” %haslyrics%–tag-from-file=LYRICS=”%lyricsfile%”%haslyrics% -T “DISCNUMBER=%cdnumber%” -T “TOTALDISCS=%totalcds%” -T “TOTALTRACKS=%numtracks%” %hascover%–picture=”%coverfile%”%hascover% %source% -o %dest%

TOC извлечённого CD

Трек | Старт | Длительность | Начальный сектор | Конечный сектор
———————————————————————
1 | 0:00.00 | 4:07.19 | 0 | 18543
2 | 4:07.19 | 3:24.43 | 18544 | 33886
3 | 7:31.62 | 5:06.33 | 33887 | 56869
4 | 12:38.20 | 3:15.44 | 56870 | 71538
5 | 15:53.64 | 3:19.33 | 71539 | 86496
6 | 19:13.22 | 1:26.43 | 86497 | 92989
7 | 20:39.65 | 3:23.66 | 92990 | 108280
8 | 24:03.56 | 3:46.09 | 108281 | 125239
9 | 27:49.65 | 7:19.43 | 125240 | 158207
10 | 35:09.33 | 4:24.47 | 158208 | 178054
11 | 39:34.05 | 4:17.05 | 178055 | 197334
12 | 43:51.10 | 4:57.62 | 197335 | 219671
13 | 48:48.72 | 3:50.31 | 219672 | 236952
14 | 52:39.28 | 3:18.59 | 236953 | 251861
15 | 55:58.12 | 5:01.57 | 251862 | 274493
16 | 60:59.69 | 3:01.65 | 274494 | 288133
17 | 64:01.59 | 5:10.39 | 288134 | 311422
18 | 69:12.23 | 8:15.00 | 311423 | 348547

Трек 1

Имя файла Y:\_Extract_temp\Linkin Park\2008-Road To Revolution- Live At Milton Keynes\01-One Step Closer.wav

Длина предзазора 0:00:02.00

Пиковый уровень 99.9 %
Скорость извлечения 2.5 X
Качество трека 100.0 %
CRC теста 7525E641
CRC копии 7525E641
Точное извлечение (достоверность 13) [880636EB] (AR v2)
Копирование… OK

Трек 2

Имя файла Y:\_Extract_temp\Linkin Park\2008-Road To Revolution- Live At Milton Keynes\02-From the Inside.wav

Пиковый уровень 100.0 %
Скорость извлечения 2.7 X
Качество трека 100.0 %
CRC теста 84415E8B
CRC копии 84415E8B
Точное извлечение (достоверность 12) [BDB3307E] (AR v2)
Копирование… OK

Трек 3

Имя файла Y:\_Extract_temp\Linkin Park\2008-Road To Revolution- Live At Milton Keynes\03-No More Sorrow.wav

Пиковый уровень 100.0 %
Скорость извлечения 2.8 X
Качество трека 99.9 %
CRC теста 7C848E7E
CRC копии 7C848E7E
Точное извлечение (достоверность 12) [FABAA6E4] (AR v2)
Копирование… OK

Трек 4

Имя файла Y:\_Extract_temp\Linkin Park\2008-Road To Revolution- Live At Milton Keynes\04-Given Up.wav

Пиковый уровень 100.0 %
Скорость извлечения 3.1 X
Качество трека 100.0 %
CRC теста AC8F841E
CRC копии AC8F841E
Точное извлечение (достоверность 12) [BF7C39EC] (AR v2)
Копирование… OK

Трек 5

Имя файла Y:\_Extract_temp\Linkin Park\2008-Road To Revolution- Live At Milton Keynes\05-Lying From You.wav

Пиковый уровень 99.9 %
Скорость извлечения 3.3 X
Качество трека 100.0 %
CRC теста B2786DA8
CRC копии B2786DA8
Точное извлечение (достоверность 12) [EB65E531] (AR v2)
Копирование… OK

Трек 6

Имя файла Y:\_Extract_temp\Linkin Park\2008-Road To Revolution- Live At Milton Keynes\06-Hands Held High.wav

Пиковый уровень 99.9 %
Скорость извлечения 2.8 X
Качество трека 100.0 %
CRC теста 418EC934
CRC копии 418EC934
Точное извлечение (достоверность 12) [3A1A5C2D] (AR v2)
Копирование… OK

Трек 7

Имя файла Y:\_Extract_temp\Linkin Park\2008-Road To Revolution- Live At Milton Keynes\07-Leave Out All the Rest.wav

Пиковый уровень 99.9 %
Скорость извлечения 3.5 X
Качество трека 100.0 %
CRC теста 47CA2F25
CRC копии 47CA2F25
Точное извлечение (достоверность 12) [D11B3DC0] (AR v2)
Копирование… OK

Трек 8

Имя файла Y:\_Extract_temp\Linkin Park\2008-Road To Revolution- Live At Milton Keynes\08-Numb.wav

Пиковый уровень 99.9 %
Скорость извлечения 3.3 X
Качество трека 99.9 %
CRC теста 6F08599F
CRC копии 6F08599F
Точное извлечение (достоверность 12) [BA129EE6] (AR v2)
Копирование… OK

Трек 9

Имя файла Y:\_Extract_temp\Linkin Park\2008-Road To Revolution- Live At Milton Keynes\09-The Little Things You Give Away.wav

Пиковый уровень 99.9 %
Скорость извлечения 4.0 X
Качество трека 99.9 %
CRC теста 74E797C5
CRC копии 74E797C5
Точное извлечение (достоверность 12) [27C8B9FE] (AR v2)
Копирование… OK

Трек 10

Имя файла Y:\_Extract_temp\Linkin Park\2008-Road To Revolution- Live At Milton Keynes\10-Breaking the Habit.wav

Пиковый уровень 99.9 %
Скорость извлечения 3.8 X
Качество трека 99.9 %
CRC теста C1A23546
CRC копии C1A23546
Точное извлечение (достоверность 12) [945AB1CA] (AR v2)
Копирование… OK

Трек 11

Имя файла Y:\_Extract_temp\Linkin Park\2008-Road To Revolution- Live At Milton Keynes\11-Shadow of the Day.wav

Пиковый уровень 99.9 %
Скорость извлечения 4.5 X
Качество трека 100.0 %
CRC теста 6BBCD619
CRC копии 6BBCD619
Точное извлечение (достоверность 12) [F3BD561C] (AR v2)
Копирование… OK

Трек 12

Имя файла Y:\_Extract_temp\Linkin Park\2008-Road To Revolution- Live At Milton Keynes\12-Crawling.wav

Пиковый уровень 99.9 %
Скорость извлечения 4.2 X
Качество трека 99.9 %
CRC теста CEB91DB4
CRC копии CEB91DB4
Точное извлечение (достоверность 11) [1F595122] (AR v2)
Копирование… OK

Трек 13

Имя файла Y:\_Extract_temp\Linkin Park\2008-Road To Revolution- Live At Milton Keynes\13-In The End.wav

Пиковый уровень 99.9 %
Скорость извлечения 4.1 X
Качество трека 99.9 %
CRC теста 1B919CAB
CRC копии 1B919CAB
Точное извлечение (достоверность 12) [21A602FD] (AR v2)
Копирование… OK

Трек 14

Имя файла Y:\_Extract_temp\Linkin Park\2008-Road To Revolution- Live At Milton Keynes\14-Pushing Me Away.wav

Пиковый уровень 99.9 %
Скорость извлечения 4.7 X
Качество трека 100.0 %
CRC теста 5F72F25A
CRC копии 5F72F25A
Точное извлечение (достоверность 12) [A6162B50] (AR v2)
Копирование… OK

Трек 15

Имя файла Y:\_Extract_temp\Linkin Park\2008-Road To Revolution- Live At Milton Keynes\15-What I’ve Done.wav

Пиковый уровень 100.0 %
Скорость извлечения 4.6 X
Качество трека 99.9 %
CRC теста F2AD48F8
CRC копии F2AD48F8
Точное извлечение (достоверность 12) [A1C82FFA] (AR v2)
Копирование… OK

Трек 16

Имя файла Y:\_Extract_temp\Linkin Park\2008-Road To Revolution- Live At Milton Keynes\16-Numb,Encore with Jay-Z.wav

Пиковый уровень 99.9 %
Скорость извлечения 4.8 X
Качество трека 100.0 %
CRC теста ED9C557F
CRC копии ED9C557F
Точное извлечение (достоверность 12) [62D70482] (AR v2)
Копирование… OK

Трек 17

Имя файла Y:\_Extract_temp\Linkin Park\2008-Road To Revolution- Live At Milton Keynes\17-Jigga What,Faint with Jay-Z.wav

Пиковый уровень 100.0 %
Скорость извлечения 5.4 X
Качество трека 100.0 %
CRC теста 8BBF97B7
CRC копии 8BBF97B7
Точное извлечение (достоверность 12) [59305C97] (AR v2)
Копирование… OK

Трек 18

Имя файла Y:\_Extract_temp\Linkin Park\2008-Road To Revolution- Live At Milton Keynes\18-Bleed It Out.wav

Пиковый уровень 100.0 %
Скорость извлечения 5.4 X
Качество трека 99.9 %
CRC теста 096AD39C
CRC копии 096AD39C
Точное извлечение (достоверность 12) [EF9C2975] (AR v2)
Копирование… OK

Все треки извлечены точно

Ошибок не произошло

Конец отчёта

—- CUETools DB Plugin V2.1.3

[CTDB TOCID: ZvbU4c2eC6G9an5YTyWXRtGXo00-] found, Submit result: ZvbU4c2eC6G9an5YTyWXRtGXo00- has been confirmed
[0c04b4ca] (158/237) Accurately ripped
[bcae5671] (076/237) No match
[881ac121] (001/237) No match
[2106bcdc] (001/237) No match
[eff9f871] (001/237) No match

==== Контрольная сумма отчёта E1A8C4AD7C5E9D4C9B9D6E60BAF82E541921EC12D230A09E7DE907A88E44C03D ====

REM GENRE “Alternative Metal”
REM DATE 2008
REM DISCID E8122712
REM COMMENT “ExactAudioCopy v1.0b3”
PERFORMER “Linkin Park”
TITLE “Road To Revolution: Live At Milton Keynes”
FILE “01-One Step Closer.flac” WAVE
TRACK 01 AUDIO
TITLE “One Step Closer”
PERFORMER “Linkin Park”
INDEX 01 00:00:00
FILE “02-From the Inside.flac” WAVE
TRACK 02 AUDIO
TITLE “From the Inside”
PERFORMER “Linkin Park”
INDEX 01 00:00:00
FILE “03-No More Sorrow.flac” WAVE
TRACK 03 AUDIO
TITLE “No More Sorrow”
PERFORMER “Linkin Park”
INDEX 01 00:00:00
FILE “04-Given Up.flac” WAVE
TRACK 04 AUDIO
TITLE “Given Up”
PERFORMER “Linkin Park”
INDEX 01 00:00:00
FILE “05-Lying From You.flac” WAVE
TRACK 05 AUDIO
TITLE “Lying From You”
PERFORMER “Linkin Park”
INDEX 01 00:00:00
FILE “06-Hands Held High.flac” WAVE
TRACK 06 AUDIO
TITLE “Hands Held High”
PERFORMER “Linkin Park”
INDEX 01 00:00:00
FILE “07-Leave Out All the Rest.flac” WAVE
TRACK 07 AUDIO
TITLE “Leave Out All the Rest”
PERFORMER “Linkin Park”
INDEX 01 00:00:00
FILE “08-Numb.flac” WAVE
TRACK 08 AUDIO
TITLE “Numb”
PERFORMER “Linkin Park”
INDEX 01 00:00:00
FILE “09-The Little Things You Give Away.flac” WAVE
TRACK 09 AUDIO
TITLE “The Little Things You Give Away”
PERFORMER “Linkin Park”
INDEX 01 00:00:00
FILE “10-Breaking the Habit.flac” WAVE
TRACK 10 AUDIO
TITLE “Breaking the Habit”
PERFORMER “Linkin Park”
INDEX 01 00:00:00
FILE “11-Shadow of the Day.flac” WAVE
TRACK 11 AUDIO
TITLE “Shadow of the Day”
PERFORMER “Linkin Park”
INDEX 01 00:00:00
FILE “12-Crawling.flac” WAVE
TRACK 12 AUDIO
TITLE “Crawling”
PERFORMER “Linkin Park”
INDEX 01 00:00:00
FILE “13-In The End.flac” WAVE
TRACK 13 AUDIO
TITLE “In The End”
PERFORMER “Linkin Park”
INDEX 01 00:00:00
FILE “14-Pushing Me Away.flac” WAVE
TRACK 14 AUDIO
TITLE “Pushing Me Away”
PERFORMER “Linkin Park”
INDEX 01 00:00:00
FILE “15-What I’ve Done.flac” WAVE
TRACK 15 AUDIO
TITLE “What I’ve Done”
PERFORMER “Linkin Park”
INDEX 01 00:00:00
FILE “16-Numb,Encore with Jay-Z.flac” WAVE
TRACK 16 AUDIO
TITLE “Numb/Encore with Jay-Z”
PERFORMER “Linkin Park”
INDEX 01 00:00:00
FILE “17-Jigga What,Faint with Jay-Z.flac” WAVE
TRACK 17 AUDIO
TITLE “Jigga What/Faint with Jay-Z”
PERFORMER “Linkin Park”
INDEX 01 00:00:00
FILE “18-Bleed It Out.flac” WAVE
TRACK 18 AUDIO
TITLE “Bleed It Out”
PERFORMER “Linkin Park”
INDEX 01 00:00:00


0

Publication author

offline 14 hours

Chaos

3
Comments: 4Publics: 3418Registration: 02-02-2019
Spread the Download

Leave a Reply

Your email address will not be published. Required fields are marked *

Enter the text from the image below
 

This site uses Akismet to reduce spam. Learn how your comment data is processed.