Linkin Park – Reanimation




Artist: Linkin Park
Year: 2002
Genre: Rock
Notes: Discogs
Add. Notes:
Encoder: FLAC
Bitrate: ~900 kBit/s (VBR)
Size: 408 MB
Password: “slam” (without ” “)


Crypted via FileCrypt.cc:

.

Crypted via Relink.to:

Tracklist:

Mike Shinoda - Opening - 1:07
Jay Gordon - Pts.Of.Athrty - 3:45
Kutmasta Kurt* Featuring Motion Man - Enth E Nd - 3:59
Chali* - [Chali] - 0:23
Alchemist Featuring Chali 2NA - Frgt/10 - 3:32
Mike Shinoda Featuring Stephen Richards - P5hng Me 
A*wy - 4:37
Amp Live Featuring Zion* - Plc.4 Mie Hæd - 4:20
Black Thought - X-Ecutioner Style - 1:49
Evidence (2) Featuring Pharoahe Monch & DJ Babu* - H! 
Vltg3 - 3:30
Riff Raff - [Riff Raff] - 0:21
Chairman Hahn Featuring Aceyalone - Wth>You - 4:12
Mike Shinoda - Ntr\Mssion - 0:29
Cheapshot* & Jubacca Featuring Rasco & Planet Asia - 
Ppr:Kut - 3:26
Backyard Bangers Featuring Phoenix Orion - Rnw@y - 
3:13
Mickey P.* Featuring Kelli Ali - MyDsmbr - 4:17
Stef* - [Stef] - 0:10
Josh Abraham & Mike Shinoda - By_Myslf - 3:42
Chairman Hahn - Kyur4 Th Ich - 2:32
The Humble Brothers Featuring Jonathan Davis - 1stp 
Klosr - 5:46
Mike Shinoda Featuring Aaron Lewis - Krwlng - 5:40

EAC-Log, CUE-Sheed & NFO:

Click to open spoiler
Exact Audio Copy V0.99 prebeta 5 from 4. May 2009

EAC extraction logfile from 8. July 2010, 19:44

Linkin Park / Reanimation

Used drive : TSSTcorpDVD-ROM SH-D163A Adapter: 1 ID: 0

Read mode : Secure
Utilize accurate stream : Yes
Defeat audio cache : Yes
Make use of C2 pointers : No

Read offset correction : 6
Overread into Lead-In and Lead-Out : No
Fill up missing offset samples with silence : Yes
Delete leading and trailing silent blocks : No
Null samples used in CRC calculations : Yes
Used interface : Installed external ASPI interface
Gap handling : Appended to previous track

Used output format : User Defined Encoder
Selected bitrate : 192 kBit/s
Quality : High
Add ID3 tag : No
Command line compressor : D:\Programme\Exact Audio Copy\Flac\flac.exe
Additional command line options : -T “artist=%a” -T “title=%t” -T “album=%g” -T “date=%y” -T “tracknumber=%n” -8 -e -p %s

TOC of the extracted CD

Track | Start | Length | Start sector | End sector
———————————————————
1 | 0:00.00 | 1:07.42 | 0 | 5066
2 | 1:07.42 | 3:45.39 | 5067 | 21980
3 | 4:53.06 | 3:59.72 | 21981 | 39977
4 | 8:53.03 | 0:23.56 | 39978 | 41758
5 | 9:16.59 | 3:32.28 | 41759 | 57686
6 | 12:49.12 | 4:37.73 | 57687 | 78534
7 | 17:27.10 | 4:20.56 | 78535 | 98090
8 | 21:47.66 | 1:49.37 | 98091 | 106302
9 | 23:37.28 | 3:30.55 | 106303 | 122107
10 | 27:08.08 | 0:21.68 | 122108 | 123750
11 | 27:30.01 | 4:12.23 | 123751 | 142673
12 | 31:42.24 | 0:29.30 | 142674 | 144878
13 | 32:11.54 | 3:26.26 | 144879 | 160354
14 | 35:38.05 | 3:13.30 | 160355 | 174859
15 | 38:51.35 | 4:17.44 | 174860 | 194178
16 | 43:09.04 | 0:10.02 | 194179 | 194930
17 | 43:19.06 | 3:42.33 | 194931 | 211613
18 | 47:01.39 | 2:32.64 | 211614 | 223077
19 | 49:34.28 | 5:46.03 | 223078 | 249030
20 | 55:20.31 | 5:40.19 | 249031 | 274549
21 | 63:32.50 | 7:32.46 | 285950 | 319895

Track 1

Filename D:\Eigene Dateien\Musik\Reanimation\01. Opening.wav

Pre-gap length 0:00:02.00

Peak level 82.4 %
Track quality 100.0 %
Test CRC CD4DF5B1
Copy CRC CD4DF5B1
Accurately ripped (confidence 134) [592D7558]
Copy OK

Track 2

Filename D:\Eigene Dateien\Musik\Reanimation\02. Pts.OF.Athrty.wav

Peak level 98.8 %
Track quality 100.0 %
Test CRC 5FC7A2D0
Copy CRC 5FC7A2D0
Accurately ripped (confidence 134) [AF9D7946]
Copy OK

Track 3

Filename D:\Eigene Dateien\Musik\Reanimation\03. Enth E ND.wav

Peak level 98.8 %
Track quality 100.0 %
Test CRC E11E8CD8
Copy CRC E11E8CD8
Accurately ripped (confidence 134) [C1B0A215]
Copy OK

Track 4

Filename D:\Eigene Dateien\Musik\Reanimation\04. [Chali].wav

Peak level 43.1 %
Track quality 100.0 %
Test CRC 3A0CE99C
Copy CRC 3A0CE99C
Accurately ripped (confidence 135) [3DC84470]
Copy OK

Track 5

Filename D:\Eigene Dateien\Musik\Reanimation\05. Frgt,10.wav

Peak level 99.9 %
Track quality 100.0 %
Test CRC F0F34D12
Copy CRC F0F34D12
Accurately ripped (confidence 134) [19E29FF7]
Copy OK

Track 6

Filename D:\Eigene Dateien\Musik\Reanimation\06. P5hng Me Axwy.wav

Pre-gap length 0:00:00.85

Peak level 99.9 %
Track quality 100.0 %
Test CRC EA4DC165
Copy CRC EA4DC165
Accurately ripped (confidence 134) [B37C414F]
Copy OK

Track 7

Filename D:\Eigene Dateien\Musik\Reanimation\07. PLC.4 Mie Hæd.wav

Peak level 99.3 %
Track quality 100.0 %
Test CRC 944B2B90
Copy CRC 944B2B90
Accurately ripped (confidence 133) [39A8FFE2]
Copy OK

Track 8

Filename D:\Eigene Dateien\Musik\Reanimation\08. X-Ecutioner Style.wav

Peak level 100.0 %
Track quality 100.0 %
Test CRC 0B3822C1
Copy CRC 0B3822C1
Accurately ripped (confidence 134) [6721F4F7]
Copy OK

Track 9

Filename D:\Eigene Dateien\Musik\Reanimation\09. H! Vltg3.wav

Peak level 100.0 %
Track quality 99.9 %
Test CRC D0345C8F
Copy CRC D0345C8F
Accurately ripped (confidence 133) [00525F2D]
Copy OK

Track 10

Filename D:\Eigene Dateien\Musik\Reanimation\10. [Riff Raff].wav

Peak level 65.2 %
Track quality 99.5 %
Test CRC 1E97ACF7
Copy CRC 1E97ACF7
Accurately ripped (confidence 132) [A6CA7CCE]
Copy OK

Track 11

Filename D:\Eigene Dateien\Musik\Reanimation\11. WTH]You.wav

Peak level 98.8 %
Track quality 100.0 %
Test CRC 770751E7
Copy CRC 770751E7
Accurately ripped (confidence 131) [75773587]
Copy OK

Track 12

Filename D:\Eigene Dateien\Musik\Reanimation\12. Ntr-Mssion.wav

Peak level 39.4 %
Track quality 100.0 %
Test CRC C42F6851
Copy CRC C42F6851
Accurately ripped (confidence 132) [FF0834E2]
Copy OK

Track 13

Filename D:\Eigene Dateien\Musik\Reanimation\13. PPR-Kut.wav

Peak level 98.8 %
Track quality 100.0 %
Test CRC A9EEDF86
Copy CRC A9EEDF86
Accurately ripped (confidence 131) [4A1885A3]
Copy OK

Track 14

Filename D:\Eigene Dateien\Musik\Reanimation\14. Rnw@y.wav

Peak level 100.0 %
Track quality 100.0 %
Test CRC D2BEBFC7
Copy CRC D2BEBFC7
Accurately ripped (confidence 127) [AEEFBD33]
Copy OK

Track 15

Filename D:\Eigene Dateien\Musik\Reanimation\15. My[DSMBR.wav

Peak level 98.8 %
Track quality 100.0 %
Test CRC 2C600513
Copy CRC 2C600513
Accurately ripped (confidence 123) [CC96B561]
Copy OK

Track 16

Filename D:\Eigene Dateien\Musik\Reanimation\16. [Stef].wav

Peak level 46.5 %
Track quality 100.0 %
Test CRC 3C95FD1C
Copy CRC 3C95FD1C
Accurately ripped (confidence 129) [9C327459]
Copy OK

Track 17

Filename D:\Eigene Dateien\Musik\Reanimation\17. By_Myslf.wav

Peak level 98.8 %
Track quality 100.0 %
Test CRC 5B78AA24
Copy CRC 5B78AA24
Accurately ripped (confidence 127) [FF53A7A5]
Copy OK

Track 18

Filename D:\Eigene Dateien\Musik\Reanimation\18. Kyur4 TH Ich.wav

Peak level 98.8 %
Track quality 100.0 %
Test CRC A3D047BB
Copy CRC A3D047BB
Accurately ripped (confidence 125) [618D596B]
Copy OK

Track 19

Filename D:\Eigene Dateien\Musik\Reanimation\19. 1Stp Klosr.wav

Pre-gap length 0:00:00.32

Peak level 98.8 %
Track quality 100.0 %
Test CRC 9B2D493E
Copy CRC 9B2D493E
Accurately ripped (confidence 122) [251E76B0]
Copy OK

Track 20

Filename D:\Eigene Dateien\Musik\Reanimation\20. KRWLNG.wav

Peak level 98.8 %
Track quality 100.0 %
Test CRC E1CE6C81
Copy CRC E1CE6C81
Accurately ripped (confidence 122) [4A214781]
Copy OK

All tracks accurately ripped

No errors occurred

End of status report

REM DATE 2002
REM DISCID 1D10A915
REM CATALOG Warner Bros. 9362-48326-2
CATALOG 0093624832621
PERFORMER “Linkin Park”
TITLE “Reanimation”
FILE “01. Opening.wav” WAVE
TRACK 01 AUDIO
TITLE “Opening”
PERFORMER “Linkin Park”
ISRC USWB10201913
INDEX 01 00:00:00
FILE “02. Pts.OF.Athrty.wav” WAVE
TRACK 02 AUDIO
TITLE “Pts.OF.Athrty”
PERFORMER “Linkin Park”
ISRC USWB10201670
INDEX 01 00:00:00
FILE “03. Enth E ND.wav” WAVE
TRACK 03 AUDIO
TITLE “Enth E ND”
PERFORMER “Linkin Park”
ISRC USWB10201915
INDEX 01 00:00:00
FILE “04. [Chali].wav” WAVE
TRACK 04 AUDIO
TITLE “[Chali]”
PERFORMER “Linkin Park”
ISRC USWB10201916
INDEX 01 00:00:00
FILE “05. Frgt,10.wav” WAVE
TRACK 05 AUDIO
TITLE “Frgt/10”
PERFORMER “Linkin Park”
ISRC USWB10201917
INDEX 01 00:00:00
TRACK 06 AUDIO
TITLE “P5hng Me A*wy”
PERFORMER “Linkin Park”
ISRC USWB10201918
INDEX 00 03:31:39
FILE “06. P5hng Me Axwy.wav” WAVE
INDEX 01 00:00:00
FILE “07. PLC.4 Mie Hæd.wav” WAVE
TRACK 07 AUDIO
TITLE “PLC.4 Mie Hæd”
PERFORMER “Linkin Park”
ISRC USWB10201918
INDEX 01 00:00:00
FILE “08. X-Ecutioner Style.wav” WAVE
TRACK 08 AUDIO
TITLE “X-Ecutioner Style”
PERFORMER “Linkin Park”
ISRC USWB10201920
INDEX 01 00:00:00
FILE “09. H! Vltg3.wav” WAVE
TRACK 09 AUDIO
TITLE “H! Vltg3”
PERFORMER “Linkin Park”
ISRC USWB10201921
INDEX 01 00:00:00
FILE “10. [Riff Raff].wav” WAVE
TRACK 10 AUDIO
TITLE “[Riff Raff]”
PERFORMER “Linkin Park”
ISRC USWB10201922
INDEX 01 00:00:00
FILE “11. WTH]You.wav” WAVE
TRACK 11 AUDIO
TITLE “WTH>You”
PERFORMER “Linkin Park”
ISRC USWB10201923
INDEX 01 00:00:00
FILE “12. Ntr-Mssion.wav” WAVE
TRACK 12 AUDIO
TITLE “Ntr\Mssion”
PERFORMER “Linkin Park”
ISRC USWB10201924
INDEX 01 00:00:00
FILE “13. PPR-Kut.wav” WAVE
TRACK 13 AUDIO
TITLE “PPR:Kut”
PERFORMER “Linkin Park”
ISRC USWB10201925
INDEX 01 00:00:00
FILE “14. Rnw@y.wav” WAVE
TRACK 14 AUDIO
TITLE “Rnw@y”
PERFORMER “Linkin Park”
ISRC USWB10201926
INDEX 01 00:00:00
FILE “15. My[DSMBR.wav” WAVE
TRACK 15 AUDIO
TITLE “MyDSMBR”
PERFORMER “Linkin Park”
ISRC USWB10201927
INDEX 01 00:00:00
FILE “16. [Stef].wav” WAVE
TRACK 16 AUDIO
TITLE “[Stef]”
PERFORMER “Linkin Park”
ISRC USWB10201928
INDEX 01 00:00:00
FILE “17. By_Myslf.wav” WAVE
TRACK 17 AUDIO
TITLE “By_Myslf”
PERFORMER “Linkin Park”
ISRC USWB10201929
INDEX 01 00:00:00
FILE “18. Kyur4 TH Ich.wav” WAVE
TRACK 18 AUDIO
TITLE “Kyur4 TH Ich”
PERFORMER “Linkin Park”
ISRC USWB10201930
INDEX 01 00:00:00
TRACK 19 AUDIO
TITLE “1Stp Klosr”
PERFORMER “Linkin Park”
ISRC USWB10201931
INDEX 00 02:32:40
FILE “19. 1Stp Klosr.wav” WAVE
INDEX 01 00:00:00
FILE “20. KRWLNG.wav” WAVE
TRACK 20 AUDIO
TITLE “KRWLNG”
PERFORMER “Linkin Park”
ISRC USWB10201932
INDEX 01 00:00:00
TRACK 21 MODEx/2xxx
TITLE “Data track”
PERFORMER “Linkin Park”
INDEX 00 05:40:19

Leave a Reply

Your email address will not be published. Required fields are marked *

This site uses Akismet to reduce spam. Learn how your comment data is processed.