Linkin Park – Minutes to Midnight (Enhanced)




No Cover available

Artist: Linkin Park
Year: 2007
Genre: Rock
Notes: Discogs
Add. Notes: Enhanced
Watch Songs on: YouTube
Cover incl.: Yes
Encoder: FLAC
Bitrate: ~1000 kBit/s (44.1 kHz/16 Bit/s)
Log & Cue incl.: Yes/Yes
Size: 436,5 MB
Password: “slam” (without ” “)


All Downloads/Hosters are compatible

Download 1
KatFile.com
Turbobit.net
FileFactory.com
Rapidgator.net
Download 2
KatFile.com
Turbobit.net
FileFactory.com
Rapidgator.net

Tracklist:

1 Wake 1:40
2 Given Up 3:09
3 Leave Out All The Rest 3:29
4 Bleed It Out 2:44
5 Shadow Of The Day 4:49
6 What I've Done 3:25
7 Hands Held High 3:53
8 No More Sorrow 3:41
9 Valentine's Day 3:16
10 In Between 3:16
11 In Pieces 3:38
12 The Little Things Give You Away 6:21

Bonus Tracks
13 No Roads Left 3:49
14 What I've Done (Distorted Remix) 3:47
15 Given Up (Third Encore Session) 3:10

EAC-Log, CUE-Sheed & NFO:

Click to open spoiler
Exact Audio Copy V1.0 beta 3 from 29. August 2011

Отчёт EAC об извлечении, выполненном 26. августа 2012, 19:50

Linkin Park / Minutes To Midnight

Дисковод: Optiarc DVD RW AD-7203A Adapter: 0 ID: 1

Режим чтения : Достоверность
Использование точного потока : Да
Отключение кэша аудио : Да
Использование указателей C2 : Нет

Коррекция смещения при чтении : 48
Способность читать области Lead-in и Lead-out : Нет
Заполнение пропущенных сэмплов тишиной : Да
Удаление блоков с тишиной в начале и конце : Нет
При вычислениях CRC использовались нулевые сэмплы : Да
Интерфейс : Встроенный Win32-интерфейс для Win NT/2000
Обработка зазоров : Добавлено к предыдущему треку

Выходной формат : Пользовательский кодировщик
Выбранный битрейт : 768 kBit/s
Качество : Высокий
Добавление ID3-тега : Нет
Утилита сжатия : C:\Program Files\Exact Audio Copy\FLAC\FLAC.EXE
Дополнительные параметры : -6 -V -T “ARTIST=%artist%” -T “TITLE=%title%” -T “ALBUM=%albumtitle%” -T “DATE=%year%” -T “TRACKNUMBER=%tracknr%” -T “GENRE=%genre%” -T “COMMENT=%comment%” -T “BAND=%albuminterpret%” -T “ALBUMARTIST=%albuminterpret%” -T “COMPOSER=%composer%” %haslyrics%–tag-from-file=LYRICS=”%lyricsfile%”%haslyrics% -T “DISCNUMBER=%cdnumber%” -T “TOTALDISCS=%totalcds%” -T “TOTALTRACKS=%numtracks%” %hascover%–picture=”%coverfile%”%hascover% %source% -o %dest%

TOC извлечённого CD

Трек | Старт | Длительность | Начальный сектор | Конечный сектор
———————————————————————
1 | 0:00.00 | 1:40.69 | 0 | 7568
2 | 1:40.69 | 3:09.22 | 7569 | 21765
3 | 4:50.16 | 3:29.23 | 21766 | 37463
4 | 8:19.39 | 2:44.32 | 37464 | 49795
5 | 11:03.71 | 4:49.68 | 49796 | 71538
6 | 15:53.64 | 3:25.17 | 71539 | 86930
7 | 19:19.06 | 3:53.10 | 86931 | 104415
8 | 23:12.16 | 3:41.52 | 104416 | 121042
9 | 26:53.68 | 3:16.63 | 121043 | 135805
10 | 30:10.56 | 3:16.56 | 135806 | 150561
11 | 33:27.37 | 3:38.01 | 150562 | 166912
12 | 37:05.38 | 6:21.58 | 166913 | 195545
13 | 43:27.21 | 3:49.66 | 195546 | 212786
14 | 47:17.12 | 3:47.74 | 212787 | 229885
15 | 51:05.11 | 3:08.58 | 229886 | 244043
16 | 56:45.69 | 0:57.34 | 255444 | 259752

Трек 1

Имя файла Y:\_Extract_temp\Linkin Park\2007-Minutes To Midnight\01-Wake.wav

Длина предзазора 0:00:02.00

Пиковый уровень 90.4 %
Скорость извлечения 1.5 X
Качество трека 99.8 %
CRC теста 531A14FA
CRC копии 531A14FA
Точное извлечение (достоверность 4) [E0F2BB99] (AR v2)
Копирование… OK

Трек 2

Имя файла Y:\_Extract_temp\Linkin Park\2007-Minutes To Midnight\02-Given Up.wav

Пиковый уровень 97.6 %
Скорость извлечения 2.4 X
Качество трека 100.0 %
CRC теста 20EED3C4
CRC копии 20EED3C4
Точное извлечение (достоверность 4) [0AA14A49] (AR v2)
Копирование… OK

Трек 3

Имя файла Y:\_Extract_temp\Linkin Park\2007-Minutes To Midnight\03-Leave All The Rest.wav

Пиковый уровень 97.7 %
Скорость извлечения 2.6 X
Качество трека 100.0 %
CRC теста 6FC1910E
CRC копии 6FC1910E
Точное извлечение (достоверность 4) [0AD53E28] (AR v2)
Копирование… OK

Трек 4

Имя файла Y:\_Extract_temp\Linkin Park\2007-Minutes To Midnight\04-Bleed It Out.wav

Пиковый уровень 97.6 %
Скорость извлечения 2.7 X
Качество трека 100.0 %
CRC теста FC4BAEA5
CRC копии FC4BAEA5
Точное извлечение (достоверность 4) [B1762FF7] (AR v2)
Копирование… OK

Трек 5

Имя файла Y:\_Extract_temp\Linkin Park\2007-Minutes To Midnight\05-Shadow Of The Day.wav

Пиковый уровень 97.7 %
Скорость извлечения 3.1 X
Качество трека 100.0 %
CRC теста 99A2C419
CRC копии 99A2C419
Точное извлечение (достоверность 4) [EC3C56DC] (AR v2)
Копирование… OK

Трек 6

Имя файла Y:\_Extract_temp\Linkin Park\2007-Minutes To Midnight\06-What I’ve Done.wav

Пиковый уровень 97.7 %
Скорость извлечения 3.2 X
Качество трека 100.0 %
CRC теста 5F14852D
CRC копии 5F14852D
Точное извлечение (достоверность 4) [9B58076F] (AR v2)
Копирование… OK

Трек 7

Имя файла Y:\_Extract_temp\Linkin Park\2007-Minutes To Midnight\07-Hands Held High.wav

Пиковый уровень 97.7 %
Скорость извлечения 3.4 X
Качество трека 100.0 %
CRC теста 32BF07C9
CRC копии 32BF07C9
Точное извлечение (достоверность 4) [2F303325] (AR v2)
Копирование… OK

Трек 8

Имя файла Y:\_Extract_temp\Linkin Park\2007-Minutes To Midnight\08-No More Sorrow.wav

Пиковый уровень 97.7 %
Скорость извлечения 3.5 X
Качество трека 100.0 %
CRC теста 19E3A3B5
CRC копии 19E3A3B5
Точное извлечение (достоверность 4) [6B08163A] (AR v2)
Копирование… OK

Трек 9

Имя файла Y:\_Extract_temp\Linkin Park\2007-Minutes To Midnight\09-Valentine’s Day.wav

Пиковый уровень 97.6 %
Скорость извлечения 3.1 X
Качество трека 99.9 %
CRC теста 2AA40215
CRC копии 2AA40215
Точное извлечение (достоверность 4) [B66EEADD] (AR v2)
Копирование… OK

Трек 10

Имя файла Y:\_Extract_temp\Linkin Park\2007-Minutes To Midnight\10-In Between.wav

Пиковый уровень 97.2 %
Скорость извлечения 3.7 X
Качество трека 100.0 %
CRC теста 3E096776
CRC копии 3E096776
Точное извлечение (достоверность 4) [F2E82990] (AR v2)
Копирование… OK

Трек 11

Имя файла Y:\_Extract_temp\Linkin Park\2007-Minutes To Midnight\11-In Pieces.wav

Пиковый уровень 97.7 %
Скорость извлечения 3.9 X
Качество трека 100.0 %
CRC теста 44DAE5B3
CRC копии 44DAE5B3
Точное извлечение (достоверность 4) [4B7248A7] (AR v2)
Копирование… OK

Трек 12

Имя файла Y:\_Extract_temp\Linkin Park\2007-Minutes To Midnight\12-The Little Things Give You Away.wav

Пиковый уровень 97.7 %
Скорость извлечения 4.0 X
Качество трека 99.9 %
CRC теста 203AF497
CRC копии 203AF497
Точное извлечение (достоверность 4) [1934FC7C] (AR v2)
Копирование… OK

Трек 13

Имя файла Y:\_Extract_temp\Linkin Park\2007-Minutes To Midnight\13-No Roads Left.wav

Пиковый уровень 99.8 %
Скорость извлечения 4.3 X
Качество трека 100.0 %
CRC теста 517E449F
CRC копии 517E449F
Точное извлечение (достоверность 4) [1F7EB767] (AR v2)
Копирование… OK

Трек 14

Имя файла Y:\_Extract_temp\Linkin Park\2007-Minutes To Midnight\14-What I’ve Done (Distorted Remix).wav

Длина предзазора 0:00:01.08

Пиковый уровень 98.8 %
Скорость извлечения 4.4 X
Качество трека 100.0 %
CRC теста EFA7D5F8
CRC копии EFA7D5F8
Точное извлечение (достоверность 4) [B4DB2DB3] (AR v2)
Копирование… OK

Трек 15

Имя файла Y:\_Extract_temp\Linkin Park\2007-Minutes To Midnight\15-Given Up (Third Encore Session).wav

Пиковый уровень 98.8 %
Скорость извлечения 4.4 X
Качество трека 100.0 %
CRC теста F7CDCD5C
CRC копии F7CDCD5C
Точное извлечение (достоверность 4) [9F4134FA] (AR v2)
Копирование… OK

Все треки извлечены точно

Ошибок не произошло

Конец отчёта

—- CUETools DB Plugin V2.1.3

[CTDB TOCID: netzBmaY8fwADrznk.Il9Ja8dAw-] found, Submit result: netzBmaY8fwADrznk.Il9Ja8dAw- has been confirmed
[941b2ea3] (33/37) Accurately ripped
[555cdaed] (01/37) No match
[ce691018] (01/37) No match
[7dd66e08] (01/37) No match
[d46091e9] (01/37) No match

==== Контрольная сумма отчёта C9D417A605F7A3082464C18CD71DE2213EE52E386DA1D098DE1D90AC5471DB03 ====

REM GENRE Rock
REM DATE 2007
REM DISCID CC0D8710
REM COMMENT “ExactAudioCopy v1.0b3”
PERFORMER “Linkin Park”
TITLE “Minutes To Midnight”
FILE “01-Wake.flac” WAVE
TRACK 01 AUDIO
TITLE “Wake”
PERFORMER “Linkin Park”
INDEX 01 00:00:00
FILE “02-Given Up.flac” WAVE
TRACK 02 AUDIO
TITLE “Given Up”
PERFORMER “Linkin Park”
INDEX 01 00:00:00
FILE “03-Leave All The Rest.flac” WAVE
TRACK 03 AUDIO
TITLE “Leave All The Rest”
PERFORMER “Linkin Park”
INDEX 01 00:00:00
FILE “04-Bleed It Out.flac” WAVE
TRACK 04 AUDIO
TITLE “Bleed It Out”
PERFORMER “Linkin Park”
INDEX 01 00:00:00
FILE “05-Shadow Of The Day.flac” WAVE
TRACK 05 AUDIO
TITLE “Shadow Of The Day”
PERFORMER “Linkin Park”
INDEX 01 00:00:00
FILE “06-What I’ve Done.flac” WAVE
TRACK 06 AUDIO
TITLE “What I’ve Done”
PERFORMER “Linkin Park”
INDEX 01 00:00:00
FILE “07-Hands Held High.flac” WAVE
TRACK 07 AUDIO
TITLE “Hands Held High”
PERFORMER “Linkin Park”
INDEX 01 00:00:00
FILE “08-No More Sorrow.flac” WAVE
TRACK 08 AUDIO
TITLE “No More Sorrow”
PERFORMER “Linkin Park”
INDEX 01 00:00:00
FILE “09-Valentine’s Day.flac” WAVE
TRACK 09 AUDIO
TITLE “Valentine’s Day”
PERFORMER “Linkin Park”
INDEX 01 00:00:00
FILE “10-In Between.flac” WAVE
TRACK 10 AUDIO
TITLE “In Between”
PERFORMER “Linkin Park”
INDEX 01 00:00:00
FILE “11-In Pieces.flac” WAVE
TRACK 11 AUDIO
TITLE “In Pieces”
PERFORMER “Linkin Park”
INDEX 01 00:00:00
FILE “12-The Little Things Give You Away.flac” WAVE
TRACK 12 AUDIO
TITLE “The Little Things Give You Away”
PERFORMER “Linkin Park”
INDEX 01 00:00:00
FILE “13-No Roads Left.flac” WAVE
TRACK 13 AUDIO
TITLE “No Roads Left”
PERFORMER “Linkin Park”
INDEX 01 00:00:00
TRACK 14 AUDIO
TITLE “What I’ve Done (Distorted Remix)”
PERFORMER “Linkin Park”
INDEX 00 03:48:58
FILE “14-What I’ve Done (Distorted Remix).flac” WAVE
INDEX 01 00:00:00
FILE “15-Given Up (Third Encore Session).flac” WAVE
TRACK 15 AUDIO
TITLE “Given Up (Third Encore Session)”
PERFORMER “Linkin Park”
INDEX 01 00:00:00
TRACK 16 MODEx/2xxx
TITLE “Data”
PERFORMER “Linkin Park”
INDEX 00 03:08:58


Leave a Reply

Your email address will not be published. Required fields are marked *

Enter the text from the image below
 

This site uses Akismet to reduce spam. Learn how your comment data is processed.