Linkin Park – Meteora




Artist: Linkin Park
Year: 2003
Genre: Metal
Notes: Discogs
Add. Notes:
Encoder: FLAC
Bitrate: ~1100 kBit/s (VBR)
Size: 513,29 MB
Password: “slam” (without ” “)


Tracklist:

1 - Foreword - 0:13
2 - Don't Stay - 3:07
3 - Somewhere I Belong - 3:33
4 - Lying From You - 2:55
5 - Hit The Floor - 2:44
6 - Easier To Run - 3:24
7 - Faint - 2:42
8 - Figure.09 - 3:17
9 - Breaking The Habit - 3:16
10 - From The Inside - 2:55
11 - Nobody's Listening - 2:58
12 - Session - 2:24
13 - Numb - 3:09

EAC-Log, CUE-Sheed & NFO:

Click to open spoiler
Exact Audio Copy V0.99 prebeta 5 from 4. May 2009

EAC extraction logfile from 17. December 2009, 16:41

Linkin Park / Meteora

Used drive : TSSTcorpDVD-ROM SH-D163A Adapter: 1 ID: 0

Read mode : Secure
Utilize accurate stream : Yes
Defeat audio cache : Yes
Make use of C2 pointers : No

Read offset correction : 6
Overread into Lead-In and Lead-Out : No
Fill up missing offset samples with silence : Yes
Delete leading and trailing silent blocks : No
Null samples used in CRC calculations : Yes
Used interface : Installed external ASPI interface
Gap handling : Appended to previous track

Used output format : User Defined Encoder
Selected bitrate : 192 kBit/s
Quality : High
Add ID3 tag : No
Command line compressor : D:\Programme\Exact Audio Copy\Flac\flac.exe
Additional command line options : -T “artist=%a” -T “title=%t” -T “album=%g” -T “date=%y” -T “tracknumber=%n” -8 -e -p %s

TOC of the extracted CD

Track | Start | Length | Start sector | End sector
———————————————————
1 | 0:00.00 | 0:13.33 | 0 | 1007
2 | 0:13.33 | 3:07.70 | 1008 | 15102
3 | 3:21.28 | 3:33.70 | 15103 | 31147
4 | 6:55.23 | 2:55.04 | 31148 | 44276
5 | 9:50.27 | 2:44.16 | 44277 | 56592
6 | 12:34.43 | 3:24.13 | 56593 | 71905
7 | 15:58.56 | 2:42.08 | 71906 | 84063
8 | 18:40.64 | 3:17.38 | 84064 | 98876
9 | 21:58.27 | 3:16.10 | 98877 | 113586
10 | 25:14.37 | 2:55.38 | 113587 | 126749
11 | 28:10.00 | 2:58.65 | 126750 | 140164
12 | 31:08.65 | 2:24.55 | 140165 | 151019
13 | 33:33.45 | 3:07.39 | 151020 | 165083
14 | 39:13.09 | 24:32.48 | 176484 | 286931

Track 1

Filename D:\Eigene Dateien\Musik\Meteora\01. Foreword.wav

Pre-gap length 0:00:02.00

Peak level 75.3 %
Track quality 100.0 %
Test CRC 843A77CB
Copy CRC 843A77CB
Accurately ripped (confidence 200) [A232C5B8]
Copy OK

Track 2

Filename D:\Eigene Dateien\Musik\Meteora\02. Don’t Stay.wav

Peak level 91.5 %
Track quality 99.9 %
Test CRC A08E9701
Copy CRC A08E9701
Accurately ripped (confidence 200) [14DE1E54]
Copy OK

Track 3

Filename D:\Eigene Dateien\Musik\Meteora\03. Somewhere I Belong.wav

Peak level 98.8 %
Track quality 100.0 %
Test CRC 0EBF87D4
Copy CRC 0EBF87D4
Accurately ripped (confidence 200) [15747EA6]
Copy OK

Track 4

Filename D:\Eigene Dateien\Musik\Meteora\04. Lying From You.wav

Peak level 98.8 %
Track quality 100.0 %
Test CRC 312AF575
Copy CRC 312AF575
Accurately ripped (confidence 200) [24B292B4]
Copy OK

Track 5

Filename D:\Eigene Dateien\Musik\Meteora\05. Hit the Floor.wav

Peak level 98.8 %
Track quality 100.0 %
Test CRC 31EBE96C
Copy CRC 31EBE96C
Accurately ripped (confidence 200) [80572834]
Copy OK

Track 6

Filename D:\Eigene Dateien\Musik\Meteora\06. Easier to Run.wav

Peak level 98.8 %
Track quality 100.0 %
Test CRC D5625690
Copy CRC D5625690
Accurately ripped (confidence 200) [37DEAFAE]
Copy OK

Track 7

Filename D:\Eigene Dateien\Musik\Meteora\07. Faint.wav

Peak level 99.1 %
Track quality 100.0 %
Test CRC 0DA1D0E1
Copy CRC 0DA1D0E1
Accurately ripped (confidence 200) [96DD3B45]
Copy OK

Track 8

Filename D:\Eigene Dateien\Musik\Meteora\08. Figure.09.wav

Peak level 100.0 %
Track quality 100.0 %
Test CRC 6977009C
Copy CRC 6977009C
Accurately ripped (confidence 200) [37EE252E]
Copy OK

Track 9

Filename D:\Eigene Dateien\Musik\Meteora\09. Breaking the Habit.wav

Peak level 100.0 %
Track quality 100.0 %
Test CRC AC76DFD8
Copy CRC AC76DFD8
Accurately ripped (confidence 200) [3BB8DB1C]
Copy OK

Track 10

Filename D:\Eigene Dateien\Musik\Meteora\10. From the Inside.wav

Peak level 100.0 %
Track quality 100.0 %
Test CRC 813E1FE7
Copy CRC 813E1FE7
Accurately ripped (confidence 200) [1F3F19A7]
Copy OK

Track 11

Filename D:\Eigene Dateien\Musik\Meteora\11. Nobody’s Listening.wav

Peak level 98.8 %
Track quality 100.0 %
Test CRC 30D5F0B9
Copy CRC 30D5F0B9
Accurately ripped (confidence 200) [0CC6E782]
Copy OK

Track 12

Filename D:\Eigene Dateien\Musik\Meteora\12. Session.wav

Peak level 98.8 %
Track quality 100.0 %
Test CRC 656A82D3
Copy CRC 656A82D3
Accurately ripped (confidence 200) [9F1324D0]
Copy OK

Track 13

Filename D:\Eigene Dateien\Musik\Meteora\13. Numb.wav

Peak level 98.8 %
Track quality 100.0 %
Test CRC F58E65BB
Copy CRC F58E65BB
Accurately ripped (confidence 200) [F81CA0DC]
Copy OK

All tracks accurately ripped

No errors occurred

End of status report

REM DATE 2003
REM DISCID 9C0EF10E
REM CATALOG Warner Bros. 9362-48462-2
CATALOG 0093624846222
PERFORMER “Linkin Park”
TITLE “Meteora”
FILE “01. Foreword.wav” WAVE
TRACK 01 AUDIO
TITLE “Foreword”
PERFORMER “Linkin Park”
ISRC USWB10300463
INDEX 01 00:00:00
FILE “02. Don’t Stay.wav” WAVE
TRACK 02 AUDIO
TITLE “Don’t Stay”
PERFORMER “Linkin Park”
ISRC USWB10300464
INDEX 01 00:00:00
FILE “03. Somewhere I Belong.wav” WAVE
TRACK 03 AUDIO
TITLE “Somewhere I Belong”
PERFORMER “Linkin Park”
ISRC USWB10300376
INDEX 01 00:00:00
FILE “04. Lying From You.wav” WAVE
TRACK 04 AUDIO
TITLE “Lying From You”
PERFORMER “Linkin Park”
ISRC USWB10300465
INDEX 01 00:00:00
FILE “05. Hit the Floor.wav” WAVE
TRACK 05 AUDIO
TITLE “Hit the Floor”
PERFORMER “Linkin Park”
ISRC USWB10300466
INDEX 01 00:00:00
FILE “06. Easier to Run.wav” WAVE
TRACK 06 AUDIO
TITLE “Easier to Run”
PERFORMER “Linkin Park”
ISRC USWB10300466
INDEX 01 00:00:00
FILE “07. Faint.wav” WAVE
TRACK 07 AUDIO
TITLE “Faint”
PERFORMER “Linkin Park”
ISRC USWB10300468
INDEX 01 00:00:00
FILE “08. Figure.09.wav” WAVE
TRACK 08 AUDIO
TITLE “Figure.09”
PERFORMER “Linkin Park”
ISRC USWB10300469
INDEX 01 00:00:00
FILE “09. Breaking the Habit.wav” WAVE
TRACK 09 AUDIO
TITLE “Breaking the Habit”
PERFORMER “Linkin Park”
ISRC USWB10300469
INDEX 01 00:00:00
FILE “10. From the Inside.wav” WAVE
TRACK 10 AUDIO
TITLE “From the Inside”
PERFORMER “Linkin Park”
ISRC USWB10300471
INDEX 01 00:00:00
FILE “11. Nobody’s Listening.wav” WAVE
TRACK 11 AUDIO
TITLE “Nobody’s Listening”
PERFORMER “Linkin Park”
ISRC USWB10300472
INDEX 01 00:00:00
FILE “12. Session.wav” WAVE
TRACK 12 AUDIO
TITLE “Session”
PERFORMER “Linkin Park”
ISRC USWB10300472
INDEX 01 00:00:00
FILE “13. Numb.wav” WAVE
TRACK 13 AUDIO
TITLE “Numb”
PERFORMER “Linkin Park”
ISRC USWB10300474
INDEX 01 00:00:00
TRACK 14 MODEx/2xxx
TITLE “Data track”
PERFORMER “Linkin Park”
INDEX 00 03:07:39

Leave a Reply

Your email address will not be published. Required fields are marked *

This site uses Akismet to reduce spam. Learn how your comment data is processed.