Linkin Park – Living Things (Australian Tour Edition)




No Cover available

Artist: Linkin Park
Year: 2013
Genre: Rock
Notes: Discogs
Add. Notes: Australian Tour Edition
Watch Songs on: YouTube
Cover incl.: No
Encoder: FLAC
Bitrate: ~1000 kBit/s (44.1 kHz/16 Bit/s)
Log & Cue incl.: Yes/Yes
Size: 433,5 MB
Password: “slam” (without ” “)


All Downloads/Hosters are compatible

Download 1
KatFile.com
Turbobit.net
Rapidgator.net
FileFactory.com
Download 2
KatFile.com
Turbobit.net
Rapidgator.net
FileFactory.com

Tracklist:

CD1
1 Lost In The Echo 3:25
2 In My Remains 3:21
3 Burn It Down 3:52
4 Lies Greed Misery 2:27
5 I'll Be Gone 3:31
6 Castle Of Glass 3:25
7 Victimized 1:47
8 Roads Untraveled 3:50
9 Skin To Bone 2:49
10 Until It Breaks 3:44
11 Tinfoil 1:12
12 Powerless 3:44

CD2
1 In The End (Live iTunes Festival 2011) 3:41
2 New Divide (Live iTunes Festival 2011) 4:30
3 What I've Done (Live iTunes Festival 2011) 4:06
4 Lost In The Echo (KillSonik Remix) 5:11
5 Burn It Down (Live Rock Im Park 2012) 4:02
6 Lies Greed Misery (Live Rock Im Park 2012) 2:31

EAC-Log, CUE-Sheed & NFO:

Click to open spoiler
Exact Audio Copy V1.0 beta 3 from 29. August 2011

????? EAC ?? ??????????, ??????????? 9. ?????? 2013, 20:53

Linkin Park / Living Things

????????: Optiarc DVD RW AD-7203A Adapter: 0 ID: 1

????? ?????? : ?????????????
????????????? ??????? ?????? : ??
?????????? ???? ????? : ??
????????????? ?????????? C2 : ???

????????? ???????? ??? ?????? : 48
??????????? ?????? ??????? Lead-in ? Lead-out : ???
?????????? ??????????? ??????? ??????? : ??
???????? ?????? ? ??????? ? ?????? ? ????? : ???
??? ??????????? CRC ?????????????? ??????? ?????? : ??
????????? : ?????????? Win32-????????? ??? Win NT/2000
????????? ??????? : ????????? ? ??????????? ?????

???????? ?????? : ???????????????? ??????????
????????? ??????? : 1024 kBit/s
???????? : ???????
?????????? ID3-???? : ???
??????? ?????? : C:\Program Files (x86)\Exact Audio Copy\Flac\flac.exe
?????????????? ????????? : -V -8 -T “Genre=%genre%” -T “Artist=%artist%” -T “Title=%title%” -T “Album=%albumtitle%” -T “Date=%year%” -T “Tracknumber=%tracknr%” -T “Comment=%comment%” %source%

TOC ???????????? CD

???? | ????? | ???????????? | ????????? ?????? | ???????? ??????
———————————————————————
1 | 0:00.00 | 3:25.58 | 0 | 15432
2 | 3:25.58 | 3:20.52 | 15433 | 30484
3 | 6:46.35 | 3:50.19 | 30485 | 47753
4 | 10:36.54 | 2:27.12 | 47754 | 58790
5 | 13:03.66 | 3:31.07 | 58791 | 74622
6 | 16:34.73 | 3:25.34 | 74623 | 90031
7 | 20:00.32 | 1:46.27 | 90032 | 98008
8 | 21:46.59 | 3:49.70 | 98009 | 115253
9 | 25:36.54 | 2:48.26 | 115254 | 127879
10 | 28:25.05 | 3:43.30 | 127880 | 144634
11 | 32:08.35 | 1:11.67 | 144635 | 150026
12 | 33:20.27 | 3:44.35 | 150027 | 166861

???? 1

??? ????? Y:\_Extract_temp\2012-Living Things\01-Lost in the Echo.wav

????? ?????????? 0:00:02.00

??????? ??????? 100.0 %
???????? ?????????? 2.2 X
???????? ????? 100.0 %
CRC ????? 866AC9E1
CRC ????? 866AC9E1
???????? ?? ?????????? (????????????? 37) [0EB52B55], AccurateRip ?????? [EFDE2EBF] (AR v2)
???????????… OK

???? 2

??? ????? Y:\_Extract_temp\2012-Living Things\02-In My Remains.wav

????? ?????????? 0:00:00.49

??????? ??????? 100.0 %
???????? ?????????? 2.4 X
???????? ????? 100.0 %
CRC ????? 88D837A5
CRC ????? 88D837A5
???????? ?? ?????????? (????????????? 37) [D1552896], AccurateRip ?????? [91A6000C] (AR v2)
???????????… OK

???? 3

??? ????? Y:\_Extract_temp\2012-Living Things\03-Burn it Down.wav

??????? ??????? 98.8 %
???????? ?????????? 2.7 X
???????? ????? 100.0 %
CRC ????? DE4D26C1
CRC ????? DE4D26C1
???????? ?? ?????????? (????????????? 37) [78F39E46], AccurateRip ?????? [C2D87F8A] (AR v2)
???????????… OK

???? 4

??? ????? Y:\_Extract_temp\2012-Living Things\04-Lies Greed Misery.wav

??????? ??????? 98.8 %
???????? ?????????? 2.7 X
???????? ????? 100.0 %
CRC ????? 2434CA6C
CRC ????? 2434CA6C
???????? ?? ?????????? (????????????? 37) [6E9F697B], AccurateRip ?????? [E7346A32] (AR v2)
???????????… OK

???? 5

??? ????? Y:\_Extract_temp\2012-Living Things\05-I’ll Be Gone.wav

????? ?????????? 0:00:00.50

??????? ??????? 98.8 %
???????? ?????????? 3.0 X
???????? ????? 100.0 %
CRC ????? B487E474
CRC ????? B487E474
???????? ?? ?????????? (????????????? 37) [3C82CA2C], AccurateRip ?????? [FD1E0087] (AR v2)
???????????… OK

???? 6

??? ????? Y:\_Extract_temp\2012-Living Things\06-Castle of Glass.wav

??????? ??????? 100.0 %
???????? ?????????? 3.2 X
???????? ????? 100.0 %
CRC ????? 2B5E89E5
CRC ????? 2B5E89E5
???????? ?? ?????????? (????????????? 37) [8EE81B03], AccurateRip ?????? [E91800F8] (AR v2)
???????????… OK

???? 7

??? ????? Y:\_Extract_temp\2012-Living Things\07-Victimized.wav

????? ?????????? 0:00:00.04

??????? ??????? 100.0 %
???????? ?????????? 2.9 X
???????? ????? 100.0 %
CRC ????? 431FAF62
CRC ????? 431FAF62
???????? ?? ?????????? (????????????? 37) [640EE27F], AccurateRip ?????? [B7CE4B9C] (AR v2)
???????????… OK

???? 8

??? ????? Y:\_Extract_temp\2012-Living Things\08-Roads Untraveled.wav

??????? ??????? 100.0 %
???????? ?????????? 3.5 X
???????? ????? 100.0 %
CRC ????? 1E560BC8
CRC ????? 1E560BC8
???????? ?? ?????????? (????????????? 37) [0A2764C2], AccurateRip ?????? [996FD264] (AR v2)
???????????… OK

???? 9

??? ????? Y:\_Extract_temp\2012-Living Things\09-Skin to Bone.wav

??????? ??????? 90.9 %
???????? ?????????? 3.4 X
???????? ????? 100.0 %
CRC ????? DAE51F5F
CRC ????? DAE51F5F
???????? ?? ?????????? (????????????? 37) [B9652852], AccurateRip ?????? [B05864EB] (AR v2)
???????????… OK

???? 10

??? ????? Y:\_Extract_temp\2012-Living Things\10-Until it Breaks.wav

??????? ??????? 98.6 %
???????? ?????????? 3.3 X
???????? ????? 99.9 %
CRC ????? 32C9402E
CRC ????? 32C9402E
???????? ?? ?????????? (????????????? 37) [FDFA50AA], AccurateRip ?????? [BEE8D8B7] (AR v2)
???????????… OK

???? 11

??? ????? Y:\_Extract_temp\2012-Living Things\11-Tinfoil.wav

??????? ??????? 45.9 %
???????? ?????????? 3.0 X
???????? ????? 100.0 %
CRC ????? E739AA9F
CRC ????? E739AA9F
???????? ?? ?????????? (????????????? 37) [C97653E0], AccurateRip ?????? [A2A946A0] (AR v2)
???????????… OK

???? 12

??? ????? Y:\_Extract_temp\2012-Living Things\12-Powerless.wav

??????? ??????? 94.7 %
???????? ?????????? 3.5 X
???????? ????? 99.9 %
CRC ????? BDED998A
CRC ????? BDED998A
???????? ?? ?????????? (????????????? 36) [C46F74F7], AccurateRip ?????? [33818929] (AR v2)
???????????… OK

?? ???? ???? ?? ?????? ???????? ?? ????????
? ????? ???? ????? ???? ???? ??????? ????????? ?????

?????? ?? ?????????

????? ??????

—- CUETools DB Plugin V2.1.3

[CTDB TOCID: uMXD9f6XYzVMan01YaBcvN6z_1s-] found, Submit result: uMXD9f6XYzVMan01YaBcvN6z_1s- has been confirmed
[a738c57b] (467/477) Accurately ripped
[e8ceef2c] (001/477) No match
[bbc6a3c3] (003/477) No match
[7ab61c0e] (001/477) No match
[85046211] (001/477) No match
[c699ead0] (001/477) No match
[b731a4dc] (001/477) No match
[68b5dc28] (001/477) No match
[39141435] (001/477) No match

==== ??????????? ????? ?????? 244D750FD352509006E25FB014665C5B2711B1590509B0F7E919717EA1048368 ====

Exact Audio Copy V1.0 beta 3 from 29. August 2011

????? EAC ?? ??????????, ??????????? 9. ?????? 2013, 21:27

Linkin Park / Living Things (Australian Tour Edition) CD2

????????: Optiarc DVD RW AD-7203A Adapter: 0 ID: 1

????? ?????? : ?????????????
????????????? ??????? ?????? : ??
?????????? ???? ????? : ??
????????????? ?????????? C2 : ???

????????? ???????? ??? ?????? : 48
??????????? ?????? ??????? Lead-in ? Lead-out : ???
?????????? ??????????? ??????? ??????? : ??
???????? ?????? ? ??????? ? ?????? ? ????? : ???
??? ??????????? CRC ?????????????? ??????? ?????? : ??
????????? : ?????????? Win32-????????? ??? Win NT/2000
????????? ??????? : ????????? ? ??????????? ?????

???????? ?????? : ???????????????? ??????????
????????? ??????? : 1024 kBit/s
???????? : ???????
?????????? ID3-???? : ???
??????? ?????? : C:\Program Files (x86)\Exact Audio Copy\Flac\flac.exe
?????????????? ????????? : -V -8 -T “Genre=%genre%” -T “Artist=%artist%” -T “Title=%title%” -T “Album=%albumtitle%” -T “Date=%year%” -T “Tracknumber=%tracknr%” -T “Comment=%comment%” %source%

TOC ???????????? CD

???? | ????? | ???????????? | ????????? ?????? | ???????? ??????
———————————————————————
1 | 0:00.00 | 3:40.39 | 0 | 16538
2 | 3:40.39 | 4:30.14 | 16539 | 36802
3 | 8:10.53 | 4:05.66 | 36803 | 55243
4 | 12:16.44 | 5:11.00 | 55244 | 78568
5 | 17:27.44 | 4:02.09 | 78569 | 96727
6 | 21:29.53 | 2:31.09 | 96728 | 108061

???? 1

??? ????? Y:\_Extract_temp\2013-Living Things (Australian Tour Edition) CD2\01-In the End (Live).wav

????? ?????????? 0:00:02.00

??????? ??????? 99.9 %
???????? ?????????? 2.3 X
???????? ????? 100.0 %
CRC ????? AE950242
CRC ????? AE950242
???? ?? ????????? ? ???? AccurateRip
???????????… OK

???? 2

??? ????? Y:\_Extract_temp\2013-Living Things (Australian Tour Edition) CD2\02-New Divide (Live).wav

????? ?????????? 0:00:01.60

??????? ??????? 99.9 %
???????? ?????????? 2.6 X
???????? ????? 100.0 %
CRC ????? 0DE71B8F
CRC ????? 0DE71B8F
???? ?? ????????? ? ???? AccurateRip
???????????… OK

???? 3

??? ????? Y:\_Extract_temp\2013-Living Things (Australian Tour Edition) CD2\03-What I’ve Done (Live).wav

????? ?????????? 0:00:01.59

??????? ??????? 99.9 %
???????? ?????????? 2.8 X
???????? ????? 100.0 %
CRC ????? EF05B58F
CRC ????? EF05B58F
???? ?? ????????? ? ???? AccurateRip
???????????… OK

???? 4

??? ????? Y:\_Extract_temp\2013-Living Things (Australian Tour Edition) CD2\04-Lost in the Echo (KillSonik Remix).wav

????? ?????????? 0:00:01.26

??????? ??????? 98.8 %
???????? ?????????? 3.2 X
???????? ????? 100.0 %
CRC ????? 6646EFE9
CRC ????? 6646EFE9
???? ?? ????????? ? ???? AccurateRip
???????????… OK

???? 5

??? ????? Y:\_Extract_temp\2013-Living Things (Australian Tour Edition) CD2\05-Burn it Down (Live Rock im Park 2012).wav

????? ?????????? 0:00:01.57

??????? ??????? 98.8 %
???????? ?????????? 3.3 X
???????? ????? 100.0 %
CRC ????? 1304854E
CRC ????? 1304854E
???? ?? ????????? ? ???? AccurateRip
???????????… OK

???? 6

??? ????? Y:\_Extract_temp\2013-Living Things (Australian Tour Edition) CD2\06-Lies Greed Misery (Live Rock im Park 2012).wav

????? ?????????? 0:00:01.42

??????? ??????? 98.8 %
???????? ?????????? 3.2 X
???????? ????? 100.0 %
CRC ????? 2ED76445
CRC ????? 2ED76445
???? ?? ????????? ? ???? AccurateRip
???????????… OK

?? ?????? ????? ??? ? ???? AccurateRip

?????? ?? ?????????

????? ??????

—- CUETools DB Plugin V2.1.3

[CTDB TOCID: M7a4b9hOQI0m21EHktCLcK650_Q-] found, Submit result: M7a4b9hOQI0m21EHktCLcK650_Q- has been confirmed
[1ade39a7] (2/2) Accurately ripped

==== ??????????? ????? ?????? 85FE0CDDB5A9E52025919A10093FAD39E36E8524E321CFDF56EA1B28019D183A ====

REM GENRE Alternative
REM DATE 2012
REM DISCID 9608B00C
REM COMMENT “ExactAudioCopy v1.0b3”
PERFORMER “Linkin Park”
TITLE “Living Things”
FILE “01-Lost in the Echo.flac” WAVE
TRACK 01 AUDIO
TITLE “Lost in the Echo”
PERFORMER “Linkin Park”
INDEX 01 00:00:00
TRACK 02 AUDIO
TITLE “In My Remains”
PERFORMER “Linkin Park”
INDEX 00 03:25:09
FILE “02-In My Remains.flac” WAVE
INDEX 01 00:00:00
FILE “03-Burn it Down.flac” WAVE
TRACK 03 AUDIO
TITLE “Burn it Down”
PERFORMER “Linkin Park”
INDEX 01 00:00:00
FILE “04-Lies Greed Misery.flac” WAVE
TRACK 04 AUDIO
TITLE “Lies Greed Misery”
PERFORMER “Linkin Park”
INDEX 01 00:00:00
TRACK 05 AUDIO
TITLE “I’ll Be Gone”
PERFORMER “Linkin Park”
INDEX 00 02:26:37
FILE “05-I’ll Be Gone.flac” WAVE
INDEX 01 00:00:00
FILE “06-Castle of Glass.flac” WAVE
TRACK 06 AUDIO
TITLE “Castle of Glass”
PERFORMER “Linkin Park”
INDEX 01 00:00:00
TRACK 07 AUDIO
TITLE “Victimized”
PERFORMER “Linkin Park”
INDEX 00 03:25:30
FILE “07-Victimized.flac” WAVE
INDEX 01 00:00:00
FILE “08-Roads Untraveled.flac” WAVE
TRACK 08 AUDIO
TITLE “Roads Untraveled”
PERFORMER “Linkin Park”
INDEX 01 00:00:00
FILE “09-Skin to Bone.flac” WAVE
TRACK 09 AUDIO
TITLE “Skin to Bone”
PERFORMER “Linkin Park”
INDEX 01 00:00:00
FILE “10-Until it Breaks.flac” WAVE
TRACK 10 AUDIO
TITLE “Until it Breaks”
PERFORMER “Linkin Park”
INDEX 01 00:00:00
FILE “11-Tinfoil.flac” WAVE
TRACK 11 AUDIO
TITLE “Tinfoil”
PERFORMER “Linkin Park”
INDEX 01 00:00:00
FILE “12-Powerless.flac” WAVE
TRACK 12 AUDIO
TITLE “Powerless”
PERFORMER “Linkin Park”
INDEX 01 00:00:00

REM GENRE Alternative
REM DATE 2013
REM DISCID 4405A006
REM COMMENT “ExactAudioCopy v1.0b3”
PERFORMER “Linkin Park”
TITLE “Living Things (Australian Tour Edition) CD2”
FILE “01-In the End (Live).wav” WAVE
TRACK 01 AUDIO
TITLE “In the End (Live)”
PERFORMER “Linkin Park”
INDEX 01 00:00:00
TRACK 02 AUDIO
TITLE “New Divide (Live)”
PERFORMER “Linkin Park”
INDEX 00 03:38:54
FILE “02-New Divide (Live).wav” WAVE
INDEX 01 00:00:00
TRACK 03 AUDIO
TITLE “What I’ve Done (Live)”
PERFORMER “Linkin Park”
INDEX 00 04:28:30
FILE “03-What I’ve Done (Live).wav” WAVE
INDEX 01 00:00:00
TRACK 04 AUDIO
TITLE “Lost in the Echo (KillSonik Remix)”
PERFORMER “Linkin Park”
INDEX 00 04:04:40
FILE “04-Lost in the Echo (KillSonik Remix).wav” WAVE
INDEX 01 00:00:00
TRACK 05 AUDIO
TITLE “Burn it Down (Live Rock im Park 2012)”
PERFORMER “Linkin Park”
INDEX 00 05:09:18
FILE “05-Burn it Down (Live Rock im Park 2012).wav” WAVE
INDEX 01 00:00:00
TRACK 06 AUDIO
TITLE “Lies Greed Misery (Live Rock im Park 2012)”
PERFORMER “Linkin Park”
INDEX 00 04:00:42
FILE “06-Lies Greed Misery (Live Rock im Park 2012).wav” WAVE
INDEX 01 00:00:00


Leave a Reply

Your email address will not be published. Required fields are marked *

This site uses Akismet to reduce spam. Learn how your comment data is processed.