Linkin Park – Live in Texas (Enhanced)




No Cover available

Artist: Linkin Park
Year: 2003
Genre: Metal
Notes: Discogs
Add. Notes: Enhanced
Watch Songs on: YouTube
Cover incl.: Yes
Encoder: FLAC
Bitrate: ~1000 kBit/s (44.1 kHz/16 Bit/s)
Log & Cue incl.: Yes/Yes
Size: 398,8 MB
Password: “slam” (without ” “)


All Downloads/Hosters are compatible

Download 1
KatFile.com
Turbobit.net
Rapidgator.net
FileFactory.com
Download 2
KatFile.com
Turbobit.net
Rapidgator.net
FileFactory.com

Tracklist:

1 Somewhere I Belong 3:37
2 Lying From You 3:07
3 Papercut 3:06
4 Points Of Authority 3:25
5 Runaway 3:07
6 Faint 2:47
7 From The Inside 3:00
8 P5hng Me A*wy 5:05
9 Numb 3:06
10 Crawling 3:33
11 In The End 3:31
12 One Step Closer 4:15

EAC-Log, CUE-Sheed & NFO:

Click to open spoiler
Exact Audio Copy V1.0 beta 3 from 29. August 2011

Отчёт EAC об извлечении, выполненном 26. августа 2012, 18:12

Linkin Park / Live In Texas

Дисковод: Optiarc DVD RW AD-7203A Adapter: 0 ID: 1

Режим чтения : Достоверность
Использование точного потока : Да
Отключение кэша аудио : Да
Использование указателей C2 : Нет

Коррекция смещения при чтении : 48
Способность читать области Lead-in и Lead-out : Нет
Заполнение пропущенных сэмплов тишиной : Да
Удаление блоков с тишиной в начале и конце : Нет
При вычислениях CRC использовались нулевые сэмплы : Да
Интерфейс : Встроенный Win32-интерфейс для Win NT/2000
Обработка зазоров : Добавлено к предыдущему треку

Выходной формат : Пользовательский кодировщик
Выбранный битрейт : 768 kBit/s
Качество : Высокий
Добавление ID3-тега : Нет
Утилита сжатия : C:\Program Files\Exact Audio Copy\FLAC\FLAC.EXE
Дополнительные параметры : -6 -V -T “ARTIST=%artist%” -T “TITLE=%title%” -T “ALBUM=%albumtitle%” -T “DATE=%year%” -T “TRACKNUMBER=%tracknr%” -T “GENRE=%genre%” -T “COMMENT=%comment%” -T “BAND=%albuminterpret%” -T “ALBUMARTIST=%albuminterpret%” -T “COMPOSER=%composer%” %haslyrics%–tag-from-file=LYRICS=”%lyricsfile%”%haslyrics% -T “DISCNUMBER=%cdnumber%” -T “TOTALDISCS=%totalcds%” -T “TOTALTRACKS=%numtracks%” %hascover%–picture=”%coverfile%”%hascover% %source% -o %dest%

TOC извлечённого CD

Трек | Старт | Длительность | Начальный сектор | Конечный сектор
———————————————————————
1 | 0:00.00 | 3:37.58 | 0 | 16332
2 | 3:37.58 | 3:07.37 | 16333 | 30394
3 | 6:45.20 | 3:06.12 | 30395 | 44356
4 | 9:51.32 | 3:25.10 | 44357 | 59741
5 | 13:16.42 | 3:07.46 | 59742 | 73812
6 | 16:24.13 | 2:47.03 | 73813 | 86340
7 | 19:11.16 | 3:00.69 | 86341 | 99909
8 | 22:12.10 | 5:05.19 | 99910 | 122803
9 | 27:17.29 | 3:06.58 | 122804 | 136811
10 | 30:24.12 | 3:33.64 | 136812 | 152850
11 | 33:58.01 | 3:31.57 | 152851 | 168732
12 | 37:29.58 | 4:13.09 | 168733 | 187716
13 | 44:14.67 | 1:13.49 | 199117 | 204640

Трек 1

Имя файла Y:\_Extract_temp\Linkin Park\2003-Live In Texas\01-Somewhere I Belong.wav

Длина предзазора 0:00:02.00

Пиковый уровень 93.8 %
Скорость извлечения 1.9 X
Качество трека 99.9 %
CRC теста DF52D97A
CRC копии DF52D97A
Точное извлечение (достоверность 13) [D64CB5BE] (AR v2)
Копирование… OK

Трек 2

Имя файла Y:\_Extract_temp\Linkin Park\2003-Live In Texas\02-Lying From You.wav

Пиковый уровень 98.8 %
Скорость извлечения 2.3 X
Качество трека 100.0 %
CRC теста E1482259
CRC копии E1482259
Точное извлечение (достоверность 13) [F366FAA7] (AR v2)
Копирование… OK

Трек 3

Имя файла Y:\_Extract_temp\Linkin Park\2003-Live In Texas\03-Papercut.wav

Пиковый уровень 100.0 %
Скорость извлечения 2.5 X
Качество трека 100.0 %
CRC теста 3EB945E4
CRC копии 3EB945E4
Точное извлечение (достоверность 13) [9C09D5BB] (AR v2)
Копирование… OK

Трек 4

Имя файла Y:\_Extract_temp\Linkin Park\2003-Live In Texas\04-Points Of Authority.wav

Пиковый уровень 100.0 %
Скорость извлечения 2.7 X
Качество трека 100.0 %
CRC теста B40ABCDD
CRC копии B40ABCDD
Точное извлечение (достоверность 14) [06CB3D93] (AR v2)
Копирование… OK

Трек 5

Имя файла Y:\_Extract_temp\Linkin Park\2003-Live In Texas\05-Runaway.wav

Пиковый уровень 99.8 %
Скорость извлечения 2.9 X
Качество трека 100.0 %
CRC теста 8098D7B4
CRC копии 8098D7B4
Точное извлечение (достоверность 14) [DC5A1AF8] (AR v2)
Копирование… OK

Трек 6

Имя файла Y:\_Extract_temp\Linkin Park\2003-Live In Texas\06-Faint.wav

Пиковый уровень 100.0 %
Скорость извлечения 2.9 X
Качество трека 100.0 %
CRC теста C6B236E5
CRC копии C6B236E5
Точное извлечение (достоверность 12) [914FE7FE] (AR v2)
Копирование… OK

Трек 7

Имя файла Y:\_Extract_temp\Linkin Park\2003-Live In Texas\07-From The Inside.wav

Пиковый уровень 100.0 %
Скорость извлечения 2.7 X
Качество трека 99.9 %
CRC теста 34F54A02
CRC копии 34F54A02
Точное извлечение (достоверность 14) [DEFA8278] (AR v2)
Копирование… OK

Трек 8

Имя файла Y:\_Extract_temp\Linkin Park\2003-Live In Texas\08-P5hng Me Axwy.wav

Пиковый уровень 98.8 %
Скорость извлечения 3.6 X
Качество трека 100.0 %
CRC теста C4A5ADB0
CRC копии C4A5ADB0
Точное извлечение (достоверность 14) [D3290E3D] (AR v2)
Копирование… OK

Трек 9

Имя файла Y:\_Extract_temp\Linkin Park\2003-Live In Texas\09-Numb.wav

Пиковый уровень 100.0 %
Скорость извлечения 3.4 X
Качество трека 100.0 %
CRC теста BD7DED87
CRC копии BD7DED87
Точное извлечение (достоверность 14) [E8011067] (AR v2)
Копирование… OK

Трек 10

Имя файла Y:\_Extract_temp\Linkin Park\2003-Live In Texas\10-Crawling.wav

Пиковый уровень 100.0 %
Скорость извлечения 3.7 X
Качество трека 100.0 %
CRC теста 218C3F12
CRC копии 218C3F12
Точное извлечение (достоверность 14) [500CE9A2] (AR v2)
Копирование… OK

Трек 11

Имя файла Y:\_Extract_temp\Linkin Park\2003-Live In Texas\11-In The End.wav

Пиковый уровень 98.8 %
Скорость извлечения 3.8 X
Качество трека 100.0 %
CRC теста E7259E93
CRC копии E7259E93
Точное извлечение (достоверность 14) [6B1D9116] (AR v2)
Копирование… OK

Трек 12

Имя файла Y:\_Extract_temp\Linkin Park\2003-Live In Texas\12-One Step Closer.wav

Пиковый уровень 100.0 %
Скорость извлечения 4.0 X
Качество трека 100.0 %
CRC теста EEF73426
CRC копии EEF73426
Точное извлечение (достоверность 14) [463A0ADD] (AR v2)
Копирование… OK

Все треки извлечены точно

Ошибок не произошло

Конец отчёта

—- CUETools DB Plugin V2.1.3

[CTDB TOCID: XAja9NGq4sgEatBIQCqShMsZoaY-] found, Submit result: XAja9NGq4sgEatBIQCqShMsZoaY- has been confirmed
[4edc9592] (239/239) Accurately ripped

==== Контрольная сумма отчёта CDD515969863AA6D0161D7488231CB60DE94C653637EB341875D5B5846868E0C ====

REM GENRE Rock
REM DATE 2003
REM DISCID B50AA80D
REM COMMENT “ExactAudioCopy v1.0b3”
PERFORMER “Linkin Park”
TITLE “Live In Texas”
FILE “01-Somewhere I Belong.flac” WAVE
TRACK 01 AUDIO
TITLE “Somewhere I Belong”
PERFORMER “Linkin Park”
INDEX 01 00:00:00
FILE “02-Lying From You.flac” WAVE
TRACK 02 AUDIO
TITLE “Lying From You”
PERFORMER “Linkin Park”
INDEX 01 00:00:00
FILE “03-Papercut.flac” WAVE
TRACK 03 AUDIO
TITLE “Papercut”
PERFORMER “Linkin Park”
INDEX 01 00:00:00
FILE “04-Points Of Authority.flac” WAVE
TRACK 04 AUDIO
TITLE “Points Of Authority”
PERFORMER “Linkin Park”
INDEX 01 00:00:00
FILE “05-Runaway.flac” WAVE
TRACK 05 AUDIO
TITLE “Runaway”
PERFORMER “Linkin Park”
INDEX 01 00:00:00
FILE “06-Faint.flac” WAVE
TRACK 06 AUDIO
TITLE “Faint”
PERFORMER “Linkin Park”
INDEX 01 00:00:00
FILE “07-From The Inside.flac” WAVE
TRACK 07 AUDIO
TITLE “From The Inside”
PERFORMER “Linkin Park”
INDEX 01 00:00:00
FILE “08-P5hng Me Axwy.flac” WAVE
TRACK 08 AUDIO
TITLE “P5hng Me A*wy”
PERFORMER “Linkin Park”
INDEX 01 00:00:00
FILE “09-Numb.flac” WAVE
TRACK 09 AUDIO
TITLE “Numb”
PERFORMER “Linkin Park”
INDEX 01 00:00:00
FILE “10-Crawling.flac” WAVE
TRACK 10 AUDIO
TITLE “Crawling”
PERFORMER “Linkin Park”
INDEX 01 00:00:00
FILE “11-In The End.flac” WAVE
TRACK 11 AUDIO
TITLE “In The End”
PERFORMER “Linkin Park”
INDEX 01 00:00:00
FILE “12-One Step Closer.flac” WAVE
TRACK 12 AUDIO
TITLE “One Step Closer”
PERFORMER “Linkin Park”
INDEX 01 00:00:00
TRACK 13 MODEx/2xxx
TITLE “DATA TRACK”
PERFORMER “Linkin Park”
INDEX 00 04:13:09


0

Publication author

offline 15 hours

Chaos

3
Comments: 4Publics: 3418Registration: 02-02-2019
Spread the Download

Leave a Reply

Your email address will not be published. Required fields are marked *

Enter the text from the image below
 

This site uses Akismet to reduce spam. Learn how your comment data is processed.