Linkin Park – Hybrid Theory




Artist: Linkin Park
Year: 2000
Genre: Rock
Notes: Discogs
Add. Notes:
Encoder: FLAC
Bitrate: ~1000 kBit/s (VBR)
Size: 277,33 MB
Password: “slam” (without ” “)


Tracklist:

1 - Papercut - 3:05
2 - One Step Closer - 2:36
3 - With You - 3:23
4 - Points Of Authority - 3:20
5 - Crawling - 3:29
6 - Runaway - 3:04
7 - By Myself - 3:10
8 - In The End - 3:36
9 - A Place For My Head - 3:05
10 - Forgotten - 3:14
11 - Cure For The Itch - 2:37
12 - Pushing Me Away - 3:12

EAC-Log, CUE-Sheed & NFO:

Click to open spoiler
Exact Audio Copy V0.99 prebeta 5 from 4. May 2009

EAC extraction logfile from 20. December 2009, 17:29

Linkin Park / Hybrid Theory

Used drive : TSSTcorpDVD-ROM SH-D163A Adapter: 1 ID: 0

Read mode : Secure
Utilize accurate stream : Yes
Defeat audio cache : Yes
Make use of C2 pointers : No

Read offset correction : 6
Overread into Lead-In and Lead-Out : No
Fill up missing offset samples with silence : Yes
Delete leading and trailing silent blocks : No
Null samples used in CRC calculations : Yes
Used interface : Installed external ASPI interface
Gap handling : Appended to previous track

Used output format : User Defined Encoder
Selected bitrate : 192 kBit/s
Quality : High
Add ID3 tag : No
Command line compressor : D:\Programme\Exact Audio Copy\Flac\flac.exe
Additional command line options : -T “artist=%a” -T “title=%t” -T “album=%g” -T “date=%y” -T “tracknumber=%n” -8 -e -p %s

TOC of the extracted CD

Track | Start | Length | Start sector | End sector
———————————————————
1 | 0:00.00 | 3:05.40 | 0 | 13914
2 | 3:05.40 | 2:35.52 | 13915 | 25591
3 | 5:41.17 | 3:23.18 | 25592 | 40834
4 | 9:04.35 | 3:20.20 | 40835 | 55854
5 | 12:24.55 | 3:29.00 | 55855 | 71529
6 | 15:53.55 | 3:03.70 | 71530 | 85324
7 | 18:57.50 | 3:09.60 | 85325 | 99559
8 | 22:07.35 | 3:36.22 | 99560 | 115781
9 | 25:43.57 | 3:04.48 | 115782 | 129629
10 | 28:48.30 | 3:14.32 | 129630 | 144211
11 | 32:02.62 | 2:37.13 | 144212 | 155999
12 | 34:40.00 | 3:11.35 | 156000 | 170359

Track 1

Filename D:\Eigene Dateien\Musik\Hybrid Theory\01. Papercut.wav

Pre-gap length 0:00:02.00

Peak level 91.8 %
Track quality 100.0 %
Test CRC 2F208EC4
Copy CRC 2F208EC4
Accurately ripped (confidence 200) [E6F304E7]
Copy OK

Track 2

Filename D:\Eigene Dateien\Musik\Hybrid Theory\02. One Step Closer.wav

Peak level 92.0 %
Track quality 100.0 %
Test CRC E35ACB86
Copy CRC E35ACB86
Accurately ripped (confidence 200) [E672A379]
Copy OK

Track 3

Filename D:\Eigene Dateien\Musik\Hybrid Theory\03. With You.wav

Peak level 92.2 %
Track quality 100.0 %
Test CRC 765D4761
Copy CRC 765D4761
Accurately ripped (confidence 200) [891B415E]
Copy OK

Track 4

Filename D:\Eigene Dateien\Musik\Hybrid Theory\04. Points of Authority.wav

Peak level 91.9 %
Track quality 100.0 %
Test CRC BED83862
Copy CRC BED83862
Accurately ripped (confidence 200) [B281981B]
Copy OK

Track 5

Filename D:\Eigene Dateien\Musik\Hybrid Theory\05. Crawling.wav

Peak level 91.8 %
Track quality 100.0 %
Test CRC 5D8F7EFE
Copy CRC 5D8F7EFE
Accurately ripped (confidence 200) [A45BB74B]
Copy OK

Track 6

Filename D:\Eigene Dateien\Musik\Hybrid Theory\06. Runaway.wav

Peak level 92.3 %
Track quality 99.9 %
Test CRC 0C34DA50
Copy CRC 0C34DA50
Accurately ripped (confidence 200) [E3808A36]
Copy OK

Track 7

Filename D:\Eigene Dateien\Musik\Hybrid Theory\07. By Myself.wav

Peak level 92.4 %
Track quality 100.0 %
Test CRC D60447AC
Copy CRC D60447AC
Accurately ripped (confidence 200) [22578F48]
Copy OK

Track 8

Filename D:\Eigene Dateien\Musik\Hybrid Theory\08. In the End.wav

Peak level 92.0 %
Track quality 100.0 %
Test CRC 7C283E91
Copy CRC 7C283E91
Accurately ripped (confidence 200) [37E8348E]
Copy OK

Track 9

Filename D:\Eigene Dateien\Musik\Hybrid Theory\09. A Place for My Head.wav

Peak level 93.2 %
Track quality 99.9 %
Test CRC B4060AC0
Copy CRC B4060AC0
Accurately ripped (confidence 200) [3D927517]
Copy OK

Track 10

Filename D:\Eigene Dateien\Musik\Hybrid Theory\10. Forgotten.wav

Peak level 93.0 %
Track quality 100.0 %
Test CRC 95B4C270
Copy CRC 95B4C270
Accurately ripped (confidence 200) [3D3B66FE]
Copy OK

Track 11

Filename D:\Eigene Dateien\Musik\Hybrid Theory\11. Cure for the Itch.wav

Peak level 92.8 %
Track quality 100.0 %
Test CRC D269A7E3
Copy CRC D269A7E3
Accurately ripped (confidence 200) [F1F634CC]
Copy OK

Track 12

Filename D:\Eigene Dateien\Musik\Hybrid Theory\12. Pushing Me Away.wav

Peak level 92.1 %
Track quality 100.0 %
Test CRC 27685007
Copy CRC 27685007
Accurately ripped (confidence 200) [8DB1E07A]
Copy OK

All tracks accurately ripped

No errors occurred

End of status report

REM DATE 2000
REM DISCID A208DF0C
REM CATALOG Warner Bros. 9362- 47755-2
CATALOG 0093624775522
PERFORMER “Linkin Park”
TITLE “Hybrid Theory”
FILE “01. Papercut.wav” WAVE
TRACK 01 AUDIO
TITLE “Papercut”
PERFORMER “Linkin Park”
ISRC USWB10002403
INDEX 01 00:00:00
FILE “02. One Step Closer.wav” WAVE
TRACK 02 AUDIO
TITLE “One Step Closer”
PERFORMER “Linkin Park”
ISRC USWB10002399
INDEX 01 00:00:00
FILE “03. With You.wav” WAVE
TRACK 03 AUDIO
TITLE “With You”
PERFORMER “Linkin Park”
ISRC USWB10002400
INDEX 01 00:00:00
FILE “04. Points of Authority.wav” WAVE
TRACK 04 AUDIO
TITLE “Points of Authority”
PERFORMER “Linkin Park”
ISRC USWB10002404
INDEX 01 00:00:00
FILE “05. Crawling.wav” WAVE
TRACK 05 AUDIO
TITLE “Crawling”
PERFORMER “Linkin Park”
ISRC USWB10002405
INDEX 01 00:00:00
FILE “06. Runaway.wav” WAVE
TRACK 06 AUDIO
TITLE “Runaway”
PERFORMER “Linkin Park”
ISRC USWB10002406
INDEX 01 00:00:00
FILE “07. By Myself.wav” WAVE
TRACK 07 AUDIO
TITLE “By Myself”
PERFORMER “Linkin Park”
ISRC USWB10001174
INDEX 01 00:00:00
FILE “08. In the End.wav” WAVE
TRACK 08 AUDIO
TITLE “In the End”
PERFORMER “Linkin Park”
ISRC USWB10002407
INDEX 01 00:00:00
FILE “09. A Place for My Head.wav” WAVE
TRACK 09 AUDIO
TITLE “A Place for My Head”
PERFORMER “Linkin Park”
ISRC USWB10001203
INDEX 01 00:00:00
FILE “10. Forgotten.wav” WAVE
TRACK 10 AUDIO
TITLE “Forgotten”
PERFORMER “Linkin Park”
ISRC USWB10002408
INDEX 01 00:00:00
FILE “11. Cure for the Itch.wav” WAVE
TRACK 11 AUDIO
TITLE “Cure for the Itch”
PERFORMER “Linkin Park”
ISRC USWB10002409
INDEX 01 00:00:00
FILE “12. Pushing Me Away.wav” WAVE
TRACK 12 AUDIO
TITLE “Pushing Me Away”
PERFORMER “Linkin Park”
ISRC USWB10002409
INDEX 01 00:00:00

Leave a Reply

Your email address will not be published. Required fields are marked *

This site uses Akismet to reduce spam. Learn how your comment data is processed.