Linkin Park – Greatest Hits




No Cover available

Artist: Linkin Park
Year: 2011
Genre: Punk
Notes: Discogs
Add. Notes: Bootleg
Watch Songs on: YouTube
Cover incl.: No
Encoder: FLAC
Bitrate: ~900 kBit/s (44.1 kHz/16 Bit/s)
Log & Cue incl.: Yes
Size: 2165,6 MB
Password: “slam” (without ” “)


All Downloads/Hosters are compatible

Download 1
KatFile.com
Rapidgator.net
Turbobit.net
Mexa.sh
Download 2
KatFile.com
Rapidgator.net
Turbobit.net
Mexa.sh

Tracklist:

1-1. The Catalyst 5:39
1-2. New Divide 4:31
1-3. What I've Done 3:25
1-4. Numb 3:07
1-5. One Step Closer 2:35
1-6. Leave Out All The Rest 3:19
1-7. Somewhere I Belong 3:33
1-8. Given Up 3:09
1-9. Points Of Authority 3:20
1-10. No More Sorrow 3:41
1-11. Breaking The Habit 3:16
1-12. Runaway 3:03
1-13. Lying From You 2:55
1-14. In The End 3:36
1-15. Shadow Of The Day 4:19
1-16. A Place For My Head 3:04
1-17. Faint 2:42
1-18. Papercut 3:04
1-19. Bleed It Out 2:44
1-20. Crawling 3:29
1-21. From The Inside 2:53
1-22. Easier To Run 3:22
1-23. Points Of Authority / 99 Problems / One Step Closer 
4:55
2-1. Waiting For The End 3:51
2-2. Foreword 0:13
2-3. Don't Stay 3:07
2-4. With You 3:22
2-5. No Roads Left 3:49
2-6. Qwerty 3:21
2-7. Pushing Me Away 3:11
2-8. And One 4:31
2-9. Valentine's Day 3:15
2-10. By Myself 3:09
2-11. Figure.09 3:16
2-12. The Little Things Give You Away 6:19
2-13. Forgotten 3:14
2-14. In Pieces 3:38
2-15. In Between 3:16
2-16. My December 4:11
2-17. Hands Held High 3:51
2-18. Nobody's Listening 2:58
2-19. Step Up 3:54
2-20. Hit The Floor 2:44
2-21. High Voltage 3:41
2-22. Numb / Encore 3:25
2-23. Jigga What / Faint 3:31

EAC-Log, CUE-Sheed & NFO:

Click to open spoiler
Exact Audio Copy V1.0 beta 3 from 29. August 2011

EAC extraction logfile from 23. February 2012, 21:22

Linkin Park / Greatest Hits (CD1)

Used drive : Optiarc DVD RW AD-7203S Adapter: 1 ID: 0

Read mode : Secure
Utilize accurate stream : Yes
Defeat audio cache : Yes
Make use of C2 pointers : No

Read offset correction : 48
Overread into Lead-In and Lead-Out : No
Fill up missing offset samples with silence : Yes
Delete leading and trailing silent blocks : No
Null samples used in CRC calculations : Yes
Used interface : Native Win32 interface for Win NT & 2000
Gap handling : Appended to previous track

Used output format : User Defined Encoder
Selected bitrate : 1024 kBit/s
Quality : High
Add ID3 tag : No
Command line compressor : H:\Program Files\Exact Audio Copy\Flac\flac.exe
Additional command line options : -8 -V -T “ARTIST=%artist%” -T “TITLE=%title%” -T “ALBUM=%albumtitle%” -T “DATE=%year%” -T “TRACKNUMBER=%tracknr%” -T “GENRE=%genre%” -T “PERFORMER=%albuminterpret%” -T “COMPOSER=%composer%” %haslyrics%–tag-from-file=LYRICS=”%lyricsfile%”%haslyrics% -T “ALBUMARTIST=%albumartist%” -T “DISCNUMBER=%cdnumber%” -T “TOTALDISCS=%totalcds%” -T “TOTALTRACKS=%numtracks%” -T “COMMENT=%comment%” %source% -o %dest%

TOC of the extracted CD

Track | Start | Length | Start sector | End sector
———————————————————
1 | 0:00.00 | 5:39.64 | 0 | 25488
2 | 5:39.64 | 4:31.07 | 25489 | 45820
3 | 10:10.71 | 3:25.17 | 45821 | 61212
4 | 13:36.13 | 3:07.39 | 61213 | 75276
5 | 16:43.52 | 2:35.50 | 75277 | 86951
6 | 19:19.27 | 3:19.45 | 86952 | 101921
7 | 22:38.72 | 3:33.70 | 101922 | 117966
8 | 26:12.67 | 3:09.22 | 117967 | 132163
9 | 29:22.14 | 3:20.20 | 132164 | 147183
10 | 32:42.34 | 3:41.52 | 147184 | 163810
11 | 36:24.11 | 3:16.10 | 163811 | 178520
12 | 39:40.21 | 3:03.70 | 178521 | 192315
13 | 42:44.16 | 2:55.04 | 192316 | 205444
14 | 45:39.20 | 3:36.22 | 205445 | 221666
15 | 49:15.42 | 4:19.51 | 221667 | 241142
16 | 53:35.18 | 3:04.45 | 241143 | 254987
17 | 56:39.63 | 2:42.08 | 254988 | 267145
18 | 59:21.71 | 3:04.53 | 267146 | 280998
19 | 62:26.49 | 2:44.32 | 280999 | 293330
20 | 65:11.06 | 3:29.00 | 293331 | 309005
21 | 68:40.06 | 2:53.67 | 309006 | 322047
22 | 71:33.73 | 3:22.30 | 322048 | 337227
23 | 74:56.28 | 4:55.62 | 337228 | 359414

Track 1

Filename I:\Linkin Park – GreatestHits (2CD) – 2011\Linkin Park – Greatest Hits (CD1) – 2011 [flac]\01. The Catalyst.wav

Pre-gap length 0:00:02.00

Peak level 79.1 %
Extraction speed 2.7 X
Track quality 100.0 %
Test CRC 5FB79345
Copy CRC 5FB79345
Track not present in AccurateRip database
Copy OK

Track 2

Filename I:\Linkin Park – GreatestHits (2CD) – 2011\Linkin Park – Greatest Hits (CD1) – 2011 [flac]\02. New Divide.wav

Peak level 61.0 %
Extraction speed 2.9 X
Track quality 100.0 %
Test CRC 11629AF7
Copy CRC 11629AF7
Track not present in AccurateRip database
Copy OK

Track 3

Filename I:\Linkin Park – GreatestHits (2CD) – 2011\Linkin Park – Greatest Hits (CD1) – 2011 [flac]\03. What I’ve Done.wav

Peak level 68.3 %
Extraction speed 3.0 X
Track quality 100.0 %
Test CRC 66762782
Copy CRC 66762782
Track not present in AccurateRip database
Copy OK

Track 4

Filename I:\Linkin Park – GreatestHits (2CD) – 2011\Linkin Park – Greatest Hits (CD1) – 2011 [flac]\04. Numb.wav

Peak level 57.5 %
Extraction speed 3.0 X
Track quality 100.0 %
Test CRC 3862C5B1
Copy CRC 3862C5B1
Track not present in AccurateRip database
Copy OK

Track 5

Filename I:\Linkin Park – GreatestHits (2CD) – 2011\Linkin Park – Greatest Hits (CD1) – 2011 [flac]\05. One Step Closer.wav

Peak level 63.0 %
Extraction speed 2.6 X
Track quality 99.9 %
Test CRC 2B771C16
Copy CRC 2B771C16
Track not present in AccurateRip database
Copy OK

Track 6

Filename I:\Linkin Park – GreatestHits (2CD) – 2011\Linkin Park – Greatest Hits (CD1) – 2011 [flac]\06. Leave Out All The Rest.wav

Peak level 71.2 %
Extraction speed 3.4 X
Track quality 100.0 %
Test CRC E5CDAB8F
Copy CRC E5CDAB8F
Track not present in AccurateRip database
Copy OK

Track 7

Filename I:\Linkin Park – GreatestHits (2CD) – 2011\Linkin Park – Greatest Hits (CD1) – 2011 [flac]\07. Somewhere I Belong.wav

Peak level 58.9 %
Extraction speed 3.5 X
Track quality 100.0 %
Test CRC 97165A3D
Copy CRC 97165A3D
Track not present in AccurateRip database
Copy OK

Track 8

Filename I:\Linkin Park – GreatestHits (2CD) – 2011\Linkin Park – Greatest Hits (CD1) – 2011 [flac]\08. Given Up.wav

Peak level 65.0 %
Extraction speed 3.6 X
Track quality 100.0 %
Test CRC 9953EBE0
Copy CRC 9953EBE0
Track not present in AccurateRip database
Copy OK

Track 9

Filename I:\Linkin Park – GreatestHits (2CD) – 2011\Linkin Park – Greatest Hits (CD1) – 2011 [flac]\09. Points Of Authority.wav

Peak level 65.9 %
Extraction speed 3.6 X
Track quality 100.0 %
Test CRC 9AE95E3D
Copy CRC 9AE95E3D
Track not present in AccurateRip database
Copy OK

Track 10

Filename I:\Linkin Park – GreatestHits (2CD) – 2011\Linkin Park – Greatest Hits (CD1) – 2011 [flac]\10. No More Sorrow.wav

Peak level 63.8 %
Extraction speed 3.8 X
Track quality 100.0 %
Test CRC 6488C3A0
Copy CRC 6488C3A0
Track not present in AccurateRip database
Copy OK

Track 11

Filename I:\Linkin Park – GreatestHits (2CD) – 2011\Linkin Park – Greatest Hits (CD1) – 2011 [flac]\11. Breaking The Habit.wav

Peak level 61.1 %
Extraction speed 3.9 X
Track quality 100.0 %
Test CRC 95985891
Copy CRC 95985891
Track not present in AccurateRip database
Copy OK

Track 12

Filename I:\Linkin Park – GreatestHits (2CD) – 2011\Linkin Park – Greatest Hits (CD1) – 2011 [flac]\12. Runaway.wav

Peak level 66.7 %
Extraction speed 3.4 X
Track quality 99.9 %
Test CRC 33E28317
Copy CRC 33E28317
Track not present in AccurateRip database
Copy OK

Track 13

Filename I:\Linkin Park – GreatestHits (2CD) – 2011\Linkin Park – Greatest Hits (CD1) – 2011 [flac]\13. Lying From You.wav

Peak level 55.6 %
Extraction speed 4.1 X
Track quality 100.0 %
Test CRC 3D39B4D5
Copy CRC 3D39B4D5
Track not present in AccurateRip database
Copy OK

Track 14

Filename I:\Linkin Park – GreatestHits (2CD) – 2011\Linkin Park – Greatest Hits (CD1) – 2011 [flac]\14. In The End.wav

Peak level 69.4 %
Extraction speed 4.3 X
Track quality 100.0 %
Test CRC B0C176E4
Copy CRC B0C176E4
Track not present in AccurateRip database
Copy OK

Track 15

Filename I:\Linkin Park – GreatestHits (2CD) – 2011\Linkin Park – Greatest Hits (CD1) – 2011 [flac]\15. Shadow Of The Day.wav

Peak level 74.5 %
Extraction speed 4.5 X
Track quality 100.0 %
Test CRC 6BFF31CE
Copy CRC 6BFF31CE
Track not present in AccurateRip database
Copy OK

Track 16

Filename I:\Linkin Park – GreatestHits (2CD) – 2011\Linkin Park – Greatest Hits (CD1) – 2011 [flac]\16. A Place For My Head.wav

Peak level 68.9 %
Extraction speed 3.8 X
Track quality 99.9 %
Test CRC C8805BD1
Copy CRC C8805BD1
Track not present in AccurateRip database
Copy OK

Track 17

Filename I:\Linkin Park – GreatestHits (2CD) – 2011\Linkin Park – Greatest Hits (CD1) – 2011 [flac]\17. Faint.wav

Peak level 62.2 %
Extraction speed 4.3 X
Track quality 100.0 %
Test CRC F7CFB6D4
Copy CRC F7CFB6D4
Track not present in AccurateRip database
Copy OK

Track 18

Filename I:\Linkin Park – GreatestHits (2CD) – 2011\Linkin Park – Greatest Hits (CD1) – 2011 [flac]\18. Papercut.wav

Peak level 63.7 %
Extraction speed 4.7 X
Track quality 100.0 %
Test CRC E0019C61
Copy CRC E0019C61
Track not present in AccurateRip database
Copy OK

Track 19

Filename I:\Linkin Park – GreatestHits (2CD) – 2011\Linkin Park – Greatest Hits (CD1) – 2011 [flac]\19. Bleed It Out.wav

Peak level 64.9 %
Extraction speed 4.7 X
Track quality 100.0 %
Test CRC 1002024F
Copy CRC 1002024F
Track not present in AccurateRip database
Copy OK

Track 20

Filename I:\Linkin Park – GreatestHits (2CD) – 2011\Linkin Park – Greatest Hits (CD1) – 2011 [flac]\20. Crawling.wav

Peak level 71.7 %
Extraction speed 5.0 X
Track quality 100.0 %
Test CRC 99308B4A
Copy CRC 99308B4A
Track not present in AccurateRip database
Copy OK

Track 21

Filename I:\Linkin Park – GreatestHits (2CD) – 2011\Linkin Park – Greatest Hits (CD1) – 2011 [flac]\21. From The Inside.wav

Peak level 52.1 %
Extraction speed 4.8 X
Track quality 100.0 %
Test CRC 13720D4A
Copy CRC 13720D4A
Track not present in AccurateRip database
Copy OK

Track 22

Filename I:\Linkin Park – GreatestHits (2CD) – 2011\Linkin Park – Greatest Hits (CD1) – 2011 [flac]\22. Easier To Run.wav

Peak level 57.2 %
Extraction speed 5.1 X
Track quality 100.0 %
Test CRC 07904C76
Copy CRC 07904C76
Track not present in AccurateRip database
Copy OK

Track 23

Filename I:\Linkin Park – GreatestHits (2CD) – 2011\Linkin Park – Greatest Hits (CD1) – 2011 [flac]\23. Points of Authority , 99 Problems , One Step Closer (Feat. Jay-Z).wav

Peak level 58.7 %
Extraction speed 4.9 X
Track quality 99.9 %
Test CRC 29AADD74
Copy CRC 29AADD74
Track not present in AccurateRip database
Copy OK

None of the tracks are present in the AccurateRip database

No errors occurred

End of status report

—- CUETools DB Plugin V2.1.3

[CTDB TOCID: pPj_15_N2YZaUf8oYXQlKf8SxEQ-] disk not present in database, Submit result: pPj_15_N2YZaUf8oYXQlKf8SxEQ- has been uploaded

==== Log checksum 5AAA17B90590587D78148F943B2CC989715379E31096207C5B9E7FE49102F077 ====

Exact Audio Copy V1.0 beta 3 from 29. August 2011

EAC extraction logfile from 24. February 2012, 15:23

Linkin Park / Greatest Hits (CD2)

Used drive : Optiarc DVD RW AD-7203S Adapter: 1 ID: 0

Read mode : Secure
Utilize accurate stream : Yes
Defeat audio cache : Yes
Make use of C2 pointers : No

Read offset correction : 48
Overread into Lead-In and Lead-Out : No
Fill up missing offset samples with silence : Yes
Delete leading and trailing silent blocks : No
Null samples used in CRC calculations : Yes
Used interface : Native Win32 interface for Win NT & 2000
Gap handling : Appended to previous track

Used output format : User Defined Encoder
Selected bitrate : 1024 kBit/s
Quality : High
Add ID3 tag : No
Command line compressor : H:\Program Files\Exact Audio Copy\Flac\flac.exe
Additional command line options : -8 -V -T “ARTIST=%artist%” -T “TITLE=%title%” -T “ALBUM=%albumtitle%” -T “DATE=%year%” -T “TRACKNUMBER=%tracknr%” -T “GENRE=%genre%” -T “PERFORMER=%albuminterpret%” -T “COMPOSER=%composer%” %haslyrics%–tag-from-file=LYRICS=”%lyricsfile%”%haslyrics% -T “ALBUMARTIST=%albumartist%” -T “DISCNUMBER=%cdnumber%” -T “TOTALDISCS=%totalcds%” -T “TOTALTRACKS=%numtracks%” -T “COMMENT=%comment%” %source% -o %dest%

TOC of the extracted CD

Track | Start | Length | Start sector | End sector
———————————————————
1 | 0:00.00 | 3:51.51 | 0 | 17375
2 | 3:51.51 | 0:13.33 | 17376 | 18383
3 | 4:05.09 | 3:07.58 | 18384 | 32466
4 | 7:12.67 | 3:22.08 | 32467 | 47624
5 | 10:35.00 | 3:49.66 | 47625 | 64865
6 | 14:24.66 | 3:21.26 | 64866 | 79966
7 | 17:46.17 | 3:11.06 | 79967 | 94297
8 | 20:57.23 | 4:31.27 | 94298 | 114649
9 | 25:28.50 | 3:15.60 | 114650 | 129334
10 | 28:44.35 | 3:09.60 | 129335 | 143569
11 | 31:54.20 | 3:16.50 | 143570 | 158319
12 | 35:10.70 | 6:19.09 | 158320 | 186753
13 | 41:30.04 | 3:14.35 | 186754 | 201338
14 | 44:44.39 | 3:38.01 | 201339 | 217689
15 | 48:22.40 | 3:16.03 | 217690 | 232392
16 | 51:38.43 | 4:11.72 | 232393 | 251289
17 | 55:50.40 | 3:51.64 | 251290 | 268678
18 | 59:42.29 | 2:58.65 | 268679 | 282093
19 | 62:41.19 | 3:54.25 | 282094 | 299668
20 | 66:35.44 | 2:44.16 | 299669 | 311984
21 | 69:19.60 | 3:41.01 | 311985 | 328560
22 | 73:00.61 | 3:25.21 | 328561 | 343956
23 | 76:26.07 | 3:31.13 | 343957 | 359794

Track 1

Filename I:\Linkin Park – GreatestHits (2CD) – 2011\Linkin Park – Greatest Hits (CD2) – 2011 [flac]\01. Waiting For The End.wav

Pre-gap length 0:00:02.00

Peak level 67.2 %
Extraction speed 2.5 X
Track quality 100.0 %
Test CRC A9785981
Copy CRC A9785981
Track not present in AccurateRip database
Copy OK

Track 2

Filename I:\Linkin Park – GreatestHits (2CD) – 2011\Linkin Park – Greatest Hits (CD2) – 2011 [flac]\02. Foreword.wav

Peak level 100.0 %
Extraction speed 0.8 X
Track quality 100.0 %
Test CRC 2C67F24A
Copy CRC 2C67F24A
Track not present in AccurateRip database
Copy OK

Track 3

Filename I:\Linkin Park – GreatestHits (2CD) – 2011\Linkin Park – Greatest Hits (CD2) – 2011 [flac]\03. Don’t Stay.wav

Peak level 51.7 %
Extraction speed 2.6 X
Track quality 100.0 %
Test CRC 2C0133D7
Copy CRC 2C0133D7
Track not present in AccurateRip database
Copy OK

Track 4

Filename I:\Linkin Park – GreatestHits (2CD) – 2011\Linkin Park – Greatest Hits (CD2) – 2011 [flac]\04. With You.wav

Peak level 63.5 %
Extraction speed 2.8 X
Track quality 100.0 %
Test CRC 6AFFD188
Copy CRC 6AFFD188
Track not present in AccurateRip database
Copy OK

Track 5

Filename I:\Linkin Park – GreatestHits (2CD) – 2011\Linkin Park – Greatest Hits (CD2) – 2011 [flac]\05. No Roads Left.wav

Peak level 81.8 %
Extraction speed 3.0 X
Track quality 100.0 %
Test CRC ECB21CF2
Copy CRC ECB21CF2
Track not present in AccurateRip database
Copy OK

Track 6

Filename I:\Linkin Park – GreatestHits (2CD) – 2011\Linkin Park – Greatest Hits (CD2) – 2011 [flac]\06. Qwerty.wav

Peak level 58.2 %
Extraction speed 3.1 X
Track quality 100.0 %
Test CRC 196E9397
Copy CRC 196E9397
Track not present in AccurateRip database
Copy OK

Track 7

Filename I:\Linkin Park – GreatestHits (2CD) – 2011\Linkin Park – Greatest Hits (CD2) – 2011 [flac]\07. Pushing Me Away.wav

Peak level 64.1 %
Extraction speed 3.3 X
Track quality 100.0 %
Test CRC 9C879C69
Copy CRC 9C879C69
Track not present in AccurateRip database
Copy OK

Track 8

Filename I:\Linkin Park – GreatestHits (2CD) – 2011\Linkin Park – Greatest Hits (CD2) – 2011 [flac]\08. And One.wav

Peak level 63.5 %
Extraction speed 3.6 X
Track quality 100.0 %
Test CRC CD6094D4
Copy CRC CD6094D4
Track not present in AccurateRip database
Copy OK

Track 9

Filename I:\Linkin Park – GreatestHits (2CD) – 2011\Linkin Park – Greatest Hits (CD2) – 2011 [flac]\09. Valentine’s Day.wav

Peak level 71.0 %
Extraction speed 3.6 X
Track quality 100.0 %
Test CRC 7BCF3DA2
Copy CRC 7BCF3DA2
Track not present in AccurateRip database
Copy OK

Track 10

Filename I:\Linkin Park – GreatestHits (2CD) – 2011\Linkin Park – Greatest Hits (CD2) – 2011 [flac]\10. By Myself.wav

Peak level 65.2 %
Extraction speed 3.6 X
Track quality 100.0 %
Test CRC CEA43F37
Copy CRC CEA43F37
Track not present in AccurateRip database
Copy OK

Track 11

Filename I:\Linkin Park – GreatestHits (2CD) – 2011\Linkin Park – Greatest Hits (CD2) – 2011 [flac]\11. Figure.09.wav

Peak level 58.9 %
Extraction speed 3.8 X
Track quality 100.0 %
Test CRC 3486468B
Copy CRC 3486468B
Track not present in AccurateRip database
Copy OK

Track 12

Filename I:\Linkin Park – GreatestHits (2CD) – 2011\Linkin Park – Greatest Hits (CD2) – 2011 [flac]\12. The Little Things Give You Away.wav

Peak level 78.2 %
Extraction speed 3.9 X
Track quality 99.9 %
Test CRC 12CFC7AD
Copy CRC 12CFC7AD
Track not present in AccurateRip database
Copy OK

Track 13

Filename I:\Linkin Park – GreatestHits (2CD) – 2011\Linkin Park – Greatest Hits (CD2) – 2011 [flac]\13. Forgotten.wav

Peak level 61.3 %
Extraction speed 4.0 X
Track quality 100.0 %
Test CRC FA8CE737
Copy CRC FA8CE737
Track not present in AccurateRip database
Copy OK

Track 14

Filename I:\Linkin Park – GreatestHits (2CD) – 2011\Linkin Park – Greatest Hits (CD2) – 2011 [flac]\14. In Pieces.wav

Peak level 76.0 %
Extraction speed 4.2 X
Track quality 100.0 %
Test CRC 353096B7
Copy CRC 353096B7
Track not present in AccurateRip database
Copy OK

Track 15

Filename I:\Linkin Park – GreatestHits (2CD) – 2011\Linkin Park – Greatest Hits (CD2) – 2011 [flac]\15. In Between.wav

Peak level 80.5 %
Extraction speed 4.3 X
Track quality 100.0 %
Test CRC 6258A517
Copy CRC 6258A517
Track not present in AccurateRip database
Copy OK

Track 16

Filename I:\Linkin Park – GreatestHits (2CD) – 2011\Linkin Park – Greatest Hits (CD2) – 2011 [flac]\16. My December.wav

Peak level 96.7 %
Extraction speed 4.1 X
Track quality 99.9 %
Test CRC 760942F9
Copy CRC 760942F9
Track not present in AccurateRip database
Copy OK

Track 17

Filename I:\Linkin Park – GreatestHits (2CD) – 2011\Linkin Park – Greatest Hits (CD2) – 2011 [flac]\17. Hands Held High.wav

Peak level 100.0 %
Extraction speed 4.7 X
Track quality 100.0 %
Test CRC 2DF018D4
Copy CRC 2DF018D4
Track not present in AccurateRip database
Copy OK

Track 18

Filename I:\Linkin Park – GreatestHits (2CD) – 2011\Linkin Park – Greatest Hits (CD2) – 2011 [flac]\18. Nobody’s Listening.wav

Peak level 60.1 %
Extraction speed 4.6 X
Track quality 100.0 %
Test CRC 7400C176
Copy CRC 7400C176
Track not present in AccurateRip database
Copy OK

Track 19

Filename I:\Linkin Park – GreatestHits (2CD) – 2011\Linkin Park – Greatest Hits (CD2) – 2011 [flac]\19. Step Up.wav

Peak level 80.0 %
Extraction speed 4.7 X
Track quality 100.0 %
Test CRC F9B50032
Copy CRC F9B50032
Track not present in AccurateRip database
Copy OK

Track 20

Filename I:\Linkin Park – GreatestHits (2CD) – 2011\Linkin Park – Greatest Hits (CD2) – 2011 [flac]\20. Hit The Floor.wav

Peak level 60.2 %
Extraction speed 4.6 X
Track quality 100.0 %
Test CRC ED03A27E
Copy CRC ED03A27E
Track not present in AccurateRip database
Copy OK

Track 21

Filename I:\Linkin Park – GreatestHits (2CD) – 2011\Linkin Park – Greatest Hits (CD2) – 2011 [flac]\21. High Voltage.wav

Peak level 73.3 %
Extraction speed 4.8 X
Track quality 100.0 %
Test CRC F2D86F13
Copy CRC F2D86F13
Track not present in AccurateRip database
Copy OK

Track 22

Filename I:\Linkin Park – GreatestHits (2CD) – 2011\Linkin Park – Greatest Hits (CD2) – 2011 [flac]\22. Numb , Encore (Feat. Jay-Z).wav

Peak level 62.5 %
Extraction speed 5.2 X
Track quality 100.0 %
Test CRC F97C81B4
Copy CRC F97C81B4
Track not present in AccurateRip database
Copy OK

Track 23

Filename I:\Linkin Park – GreatestHits (2CD) – 2011\Linkin Park – Greatest Hits (CD2) – 2011 [flac]\23. Jigga What , Faint (Feat. Jay-Z).wav

Peak level 57.4 %
Extraction speed 4.5 X
Track quality 99.9 %
Test CRC 0F332B6C
Copy CRC 0F332B6C
Track not present in AccurateRip database
Copy OK

None of the tracks are present in the AccurateRip database

No errors occurred

End of status report

—- CUETools DB Plugin V2.1.3

[CTDB TOCID: Z5QA6dfWcx93VCwclP7W6yhK0HQ-] disk not present in database, Submit result: Z5QA6dfWcx93VCwclP7W6yhK0HQ- has been uploaded

==== Log checksum 8AFC19BD60D7F9FCD3DEE1A7336735792A48AAA23C83F22E0EFBC549171D1BAD ====

REM GENRE Rock
REM DATE 2011
REM DISCID 4F12B817
REM COMMENT “ExactAudioCopy v1.0b3”
PERFORMER “Linkin Park”
TITLE “Greatest Hits (CD1)”
FILE “01. The Catalyst.wav” WAVE
TRACK 01 AUDIO
TITLE “The Catalyst”
PERFORMER “Linkin Park”
FLAGS DCP
INDEX 01 00:00:00
FILE “02. New Divide.wav” WAVE
TRACK 02 AUDIO
TITLE “New Divide”
PERFORMER “Linkin Park”
FLAGS DCP
INDEX 01 00:00:00
FILE “03. What I’ve Done.wav” WAVE
TRACK 03 AUDIO
TITLE “What I’ve Done”
PERFORMER “Linkin Park”
FLAGS DCP
INDEX 01 00:00:00
FILE “04. Numb.wav” WAVE
TRACK 04 AUDIO
TITLE “Numb”
PERFORMER “Linkin Park”
FLAGS DCP
INDEX 01 00:00:00
FILE “05. One Step Closer.wav” WAVE
TRACK 05 AUDIO
TITLE “One Step Closer”
PERFORMER “Linkin Park”
FLAGS DCP
INDEX 01 00:00:00
FILE “06. Leave Out All The Rest.wav” WAVE
TRACK 06 AUDIO
TITLE “Leave Out All The Rest”
PERFORMER “Linkin Park”
FLAGS DCP
INDEX 01 00:00:00
FILE “07. Somewhere I Belong.wav” WAVE
TRACK 07 AUDIO
TITLE “Somewhere I Belong”
PERFORMER “Linkin Park”
FLAGS DCP
INDEX 01 00:00:00
FILE “08. Given Up.wav” WAVE
TRACK 08 AUDIO
TITLE “Given Up”
PERFORMER “Linkin Park”
FLAGS DCP
INDEX 01 00:00:00
FILE “09. Points Of Authority.wav” WAVE
TRACK 09 AUDIO
TITLE “Points Of Authority”
PERFORMER “Linkin Park”
FLAGS DCP
INDEX 01 00:00:00
FILE “10. No More Sorrow.wav” WAVE
TRACK 10 AUDIO
TITLE “No More Sorrow”
PERFORMER “Linkin Park”
FLAGS DCP
INDEX 01 00:00:00
FILE “11. Breaking The Habit.wav” WAVE
TRACK 11 AUDIO
TITLE “Breaking The Habit”
PERFORMER “Linkin Park”
FLAGS DCP
INDEX 01 00:00:00
FILE “12. Runaway.wav” WAVE
TRACK 12 AUDIO
TITLE “Runaway”
PERFORMER “Linkin Park”
FLAGS DCP
INDEX 01 00:00:00
FILE “13. Lying From You.wav” WAVE
TRACK 13 AUDIO
TITLE “Lying From You”
PERFORMER “Linkin Park”
FLAGS DCP
INDEX 01 00:00:00
FILE “14. In The End.wav” WAVE
TRACK 14 AUDIO
TITLE “In The End”
PERFORMER “Linkin Park”
FLAGS DCP
INDEX 01 00:00:00
FILE “15. Shadow Of The Day.wav” WAVE
TRACK 15 AUDIO
TITLE “Shadow Of The Day”
PERFORMER “Linkin Park”
FLAGS DCP
INDEX 01 00:00:00
FILE “16. A Place For My Head.wav” WAVE
TRACK 16 AUDIO
TITLE “A Place For My Head”
PERFORMER “Linkin Park”
FLAGS DCP
INDEX 01 00:00:00
FILE “17. Faint.wav” WAVE
TRACK 17 AUDIO
TITLE “Faint”
PERFORMER “Linkin Park”
FLAGS DCP
INDEX 01 00:00:00
FILE “18. Papercut.wav” WAVE
TRACK 18 AUDIO
TITLE “Papercut”
PERFORMER “Linkin Park”
FLAGS DCP
INDEX 01 00:00:00
FILE “19. Bleed It Out.wav” WAVE
TRACK 19 AUDIO
TITLE “Bleed It Out”
PERFORMER “Linkin Park”
FLAGS DCP
INDEX 01 00:00:00
FILE “20. Crawling.wav” WAVE
TRACK 20 AUDIO
TITLE “Crawling”
PERFORMER “Linkin Park”
FLAGS DCP
INDEX 01 00:00:00
FILE “21. From The Inside.wav” WAVE
TRACK 21 AUDIO
TITLE “From The Inside”
PERFORMER “Linkin Park”
FLAGS DCP
INDEX 01 00:00:00
FILE “22. Easier To Run.wav” WAVE
TRACK 22 AUDIO
TITLE “Easier To Run”
PERFORMER “Linkin Park”
FLAGS DCP
INDEX 01 00:00:00
FILE “23. Points of Authority , 99 Problems , One Step Closer (Feat. Jay-Z).wav” WAVE
TRACK 23 AUDIO
TITLE “Points of Authority / 99 Problems / One Step Closer (Feat. Jay-Z)”
PERFORMER “Linkin Park”
FLAGS DCP
INDEX 01 00:00:00

REM GENRE Rock
REM DATE 2011
REM DISCID 5712BD17
REM COMMENT “ExactAudioCopy v1.0b3”
PERFORMER “Linkin Park”
TITLE “Greatest Hits (CD2)”
FILE “01. Waiting For The End.wav” WAVE
TRACK 01 AUDIO
TITLE “Waiting For The End”
PERFORMER “Linkin Park”
FLAGS DCP
INDEX 01 00:00:00
FILE “02. Foreword.wav” WAVE
TRACK 02 AUDIO
TITLE “Foreword”
PERFORMER “Linkin Park”
FLAGS DCP
INDEX 01 00:00:00
FILE “03. Don’t Stay.wav” WAVE
TRACK 03 AUDIO
TITLE “Don’t Stay”
PERFORMER “Linkin Park”
FLAGS DCP
INDEX 01 00:00:00
FILE “04. With You.wav” WAVE
TRACK 04 AUDIO
TITLE “With You”
PERFORMER “Linkin Park”
FLAGS DCP
INDEX 01 00:00:00
FILE “05. No Roads Left.wav” WAVE
TRACK 05 AUDIO
TITLE “No Roads Left”
PERFORMER “Linkin Park”
FLAGS DCP
INDEX 01 00:00:00
FILE “06. Qwerty.wav” WAVE
TRACK 06 AUDIO
TITLE “Qwerty”
PERFORMER “Linkin Park”
FLAGS DCP
INDEX 01 00:00:00
FILE “07. Pushing Me Away.wav” WAVE
TRACK 07 AUDIO
TITLE “Pushing Me Away”
PERFORMER “Linkin Park”
FLAGS DCP
INDEX 01 00:00:00
FILE “08. And One.wav” WAVE
TRACK 08 AUDIO
TITLE “And One”
PERFORMER “Linkin Park”
FLAGS DCP
INDEX 01 00:00:00
FILE “09. Valentine’s Day.wav” WAVE
TRACK 09 AUDIO
TITLE “Valentine’s Day”
PERFORMER “Linkin Park”
FLAGS DCP
INDEX 01 00:00:00
FILE “10. By Myself.wav” WAVE
TRACK 10 AUDIO
TITLE “By Myself”
PERFORMER “Linkin Park”
FLAGS DCP
INDEX 01 00:00:00
FILE “11. Figure.09.wav” WAVE
TRACK 11 AUDIO
TITLE “Figure.09”
PERFORMER “Linkin Park”
FLAGS DCP
INDEX 01 00:00:00
FILE “12. The Little Things Give You Away.wav” WAVE
TRACK 12 AUDIO
TITLE “The Little Things Give You Away”
PERFORMER “Linkin Park”
FLAGS DCP
INDEX 01 00:00:00
FILE “13. Forgotten.wav” WAVE
TRACK 13 AUDIO
TITLE “Forgotten”
PERFORMER “Linkin Park”
FLAGS DCP
INDEX 01 00:00:00
FILE “14. In Pieces.wav” WAVE
TRACK 14 AUDIO
TITLE “In Pieces”
PERFORMER “Linkin Park”
FLAGS DCP
INDEX 01 00:00:00
FILE “15. In Between.wav” WAVE
TRACK 15 AUDIO
TITLE “In Between”
PERFORMER “Linkin Park”
FLAGS DCP
INDEX 01 00:00:00
FILE “16. My December.wav” WAVE
TRACK 16 AUDIO
TITLE “My December”
PERFORMER “Linkin Park”
FLAGS DCP
INDEX 01 00:00:00
FILE “17. Hands Held High.wav” WAVE
TRACK 17 AUDIO
TITLE “Hands Held High”
PERFORMER “Linkin Park”
FLAGS DCP
INDEX 01 00:00:00
FILE “18. Nobody’s Listening.wav” WAVE
TRACK 18 AUDIO
TITLE “Nobody’s Listening”
PERFORMER “Linkin Park”
FLAGS DCP
INDEX 01 00:00:00
FILE “19. Step Up.wav” WAVE
TRACK 19 AUDIO
TITLE “Step Up”
PERFORMER “Linkin Park”
FLAGS DCP
INDEX 01 00:00:00
FILE “20. Hit The Floor.wav” WAVE
TRACK 20 AUDIO
TITLE “Hit The Floor”
PERFORMER “Linkin Park”
FLAGS DCP
INDEX 01 00:00:00
FILE “21. High Voltage.wav” WAVE
TRACK 21 AUDIO
TITLE “High Voltage”
PERFORMER “Linkin Park”
FLAGS DCP
INDEX 01 00:00:00
FILE “22. Numb , Encore (Feat. Jay-Z).wav” WAVE
TRACK 22 AUDIO
TITLE “Numb / Encore (Feat. Jay-Z)”
PERFORMER “Linkin Park”
FLAGS DCP
INDEX 01 00:00:00
FILE “23. Jigga What , Faint (Feat. Jay-Z).wav” WAVE
TRACK 23 AUDIO
TITLE “Jigga What / Faint (Feat. Jay-Z)”
PERFORMER “Linkin Park”
FLAGS DCP
INDEX 01 00:00:00


Leave a Reply

Your email address will not be published. Required fields are marked *

This site uses Akismet to reduce spam. Learn how your comment data is processed.