Lindemann – Skills In Pills (Deluxe Edition)




No Cover available


Artist: Lindemann
Year: 2015
Genre: Metal
Notes: Discogs
Add. Notes: Deluxe Edition
Watch Songs on: YouTube
Cover incl.: Yes
Encoder: FLAC
Bitrate: ~1000 kBit/s (44.1 kHz/16 Bit/s)
Log & Cue incl.: Yes/Yes
Size: 324,95 MB
Password: “slam” (without ” “)


All Downloads/Hosters are compatible

Download 1
KatFile.com
Turbobit.net
Rapidgator.net
FileFactory.com
Download 2
KatFile.com
Turbobit.net
Rapidgator.net
FileFactory.com

Tracklist:

1 Skills In Pills 4:13
2 Ladyboy 3:20
3 Fat 4:12
4 Fish On 4:12
5 Children Of The Sun 3:40
6 Home Sweet Home 3:45
7 Cowboy 3:11
8 Golden Shower 4:25
9 Yukon 4:44
10 Praise Abort 4:44

Bonus Track
11 That's My Heart 4:35

EAC-Log, CUE-Sheed & NFO:

Click to open spoiler
Exact Audio Copy V1.0 beta 6 from 9. April 2015

EAC extraction logfile from 19. June 2015, 23:51

Lindemann / Skills In Pills

Used drive : PLDS DVD+-RW DU-8A5LH Adapter: 1 ID: 0

Read mode : Secure
Utilize accurate stream : Yes
Defeat audio cache : Yes
Make use of C2 pointers : No

Read offset correction : 6
Overread into Lead-In and Lead-Out : No
Fill up missing offset samples with silence : Yes
Delete leading and trailing silent blocks : No
Null samples used in CRC calculations : Yes
Used interface : Native Win32 interface for Win NT & 2000
Gap handling : Appended to previous track

Used output format : User Defined Encoder
Selected bitrate : 1024 kBit/s
Quality : High
Add ID3 tag : No
Command line compressor : C:\Program Files (x86)\Exact Audio Copy\Flac\flac.exe
Additional command line options : -8 -V -T “ARTIST=%artist%” -T “TITLE=%title%” -T “ALBUM=%albumtitle%” -T “DATE=%year%” -T “TRACKNUMBER=%tracknr%” -T “GENRE=%genre%” -T “PERFORMER=%albuminterpret%” -T “COMPOSER=%composer%” %haslyrics%–tag-from-file=LYRICS=”%lyricsfile%”%haslyrics% -T “ALBUMARTIST=%albumartist%” -T “DISCNUMBER=%cdnumber%” -T “TOTALDISCS=%totalcds%” -T “TOTALTRACKS=%numtracks%” -T “COMMENT=%comment%” %source% -o %dest%

TOC of the extracted CD

Track | Start | Length | Start sector | End sector
———————————————————
1 | 0:00.00 | 4:13.51 | 0 | 19025
2 | 4:13.51 | 3:20.39 | 19026 | 34064
3 | 7:34.15 | 4:12.20 | 34065 | 52984
4 | 11:46.35 | 4:12.22 | 52985 | 71906
5 | 15:58.57 | 3:40.43 | 71907 | 88449
6 | 19:39.25 | 3:45.11 | 88450 | 105335
7 | 23:24.36 | 3:11.01 | 105336 | 119661
8 | 26:35.37 | 4:24.20 | 119662 | 139481
9 | 30:59.57 | 4:45.11 | 139482 | 160867
10 | 35:44.68 | 4:44.64 | 160868 | 182231
11 | 40:29.57 | 4:35.58 | 182232 | 202914

Track 1

Filename C:\EAC Rips\Lindemann – Skills In Pills (2015) [FLAC]\01 – Skills In Pills.wav

Pre-gap length 0:00:02.00

Peak level 96.9 %
Extraction speed 2.1 X
Track quality 100.0 %
Test CRC 87E7AC61
Copy CRC 87E7AC61
Track not present in AccurateRip database
Copy OK

Track 2

Filename C:\EAC Rips\Lindemann – Skills In Pills (2015) [FLAC]\02 – Ladyboy.wav

Peak level 100.0 %
Extraction speed 1.8 X
Track quality 99.9 %
Test CRC C7059AA7
Copy CRC C7059AA7
Track not present in AccurateRip database
Copy OK

Track 3

Filename C:\EAC Rips\Lindemann – Skills In Pills (2015) [FLAC]\03 – Fat.wav

Peak level 100.0 %
Extraction speed 2.5 X
Track quality 100.0 %
Test CRC 36BAC7CE
Copy CRC 36BAC7CE
Track not present in AccurateRip database
Copy OK

Track 4

Filename C:\EAC Rips\Lindemann – Skills In Pills (2015) [FLAC]\04 – Fish On.wav

Peak level 100.0 %
Extraction speed 2.3 X
Track quality 99.9 %
Test CRC C93507FA
Copy CRC C93507FA
Track not present in AccurateRip database
Copy OK

Track 5

Filename C:\EAC Rips\Lindemann – Skills In Pills (2015) [FLAC]\05 – Children of the Sun.wav

Peak level 100.0 %
Extraction speed 2.8 X
Track quality 100.0 %
Test CRC B1AFEEE8
Copy CRC B1AFEEE8
Track not present in AccurateRip database
Copy OK

Track 6

Filename C:\EAC Rips\Lindemann – Skills In Pills (2015) [FLAC]\06 – Home Sweet Home.wav

Peak level 100.0 %
Extraction speed 3.0 X
Track quality 100.0 %
Test CRC 2E14D514
Copy CRC 2E14D514
Track not present in AccurateRip database
Copy OK

Track 7

Filename C:\EAC Rips\Lindemann – Skills In Pills (2015) [FLAC]\07 – Cowboy.wav

Peak level 99.8 %
Extraction speed 3.1 X
Track quality 100.0 %
Test CRC 75286872
Copy CRC 75286872
Track not present in AccurateRip database
Copy OK

Track 8

Filename C:\EAC Rips\Lindemann – Skills In Pills (2015) [FLAC]\08 – Golden Shower.wav

Peak level 100.0 %
Extraction speed 2.8 X
Track quality 99.9 %
Test CRC F9E5E9CF
Copy CRC F9E5E9CF
Track not present in AccurateRip database
Copy OK

Track 9

Filename C:\EAC Rips\Lindemann – Skills In Pills (2015) [FLAC]\09 – Yukon.wav

Peak level 100.0 %
Extraction speed 3.5 X
Track quality 100.0 %
Test CRC 5A0713B8
Copy CRC 5A0713B8
Track not present in AccurateRip database
Copy OK

Track 10

Filename C:\EAC Rips\Lindemann – Skills In Pills (2015) [FLAC]\10 – Praise Abort.wav

Peak level 100.0 %
Extraction speed 3.2 X
Track quality 99.9 %
Test CRC AFB49BC5
Copy CRC AFB49BC5
Track not present in AccurateRip database
Copy OK

Track 11

Filename C:\EAC Rips\Lindemann – Skills In Pills (2015) [FLAC]\11 – That’s My Heart.wav

Pre-gap length 0:00:03.02

Peak level 100.0 %
Extraction speed 3.9 X
Track quality 100.0 %
Test CRC 5395839E
Copy CRC 5395839E
Track not present in AccurateRip database
Copy OK

None of the tracks are present in the AccurateRip database

No errors occurred

End of status report

—- CUETools DB Plugin V2.1.6

[CTDB TOCID: Is1c1n4LG86NB4qNolZ_9WEL9b0-] found
Submit result: Is1c1n4LG86NB4qNolZ_9WEL9b0- has been confirmed
Track | CTDB Status
1 | (18/18) Accurately ripped
2 | (18/18) Accurately ripped
3 | (18/18) Accurately ripped
4 | (18/18) Accurately ripped
5 | (18/18) Accurately ripped
6 | (18/18) Accurately ripped
7 | (18/18) Accurately ripped
8 | (18/18) Accurately ripped
9 | (18/18) Accurately ripped
10 | (18/18) Accurately ripped
11 | (18/18) Accurately ripped

==== Log checksum B3408986D135A30EE2B2709CF97013CA0840FA91FB8B663C01FE2B44FACD0FF5 ====

REM GENRE Indusrial
REM DATE 2015
REM DISCID 8E0A910B
REM COMMENT “ExactAudioCopy v1.0b6”
CATALOG 0825646111879
PERFORMER “Lindemann”
TITLE “Skills In Pills”
FILE “01 – Skills In Pills.wav” WAVE
TRACK 01 AUDIO
TITLE “Skills In Pills”
PERFORMER “Lindemann”
ISRC DEA621500310
INDEX 01 00:00:00
FILE “02 – Ladyboy.wav” WAVE
TRACK 02 AUDIO
TITLE “Ladyboy”
PERFORMER “Lindemann”
ISRC DEA621500311
INDEX 01 00:00:00
FILE “03 – Fat.wav” WAVE
TRACK 03 AUDIO
TITLE “Fat”
PERFORMER “Lindemann”
ISRC DEA621500312
INDEX 01 00:00:00
FILE “04 – Fish On.wav” WAVE
TRACK 04 AUDIO
TITLE “Fish On”
PERFORMER “Lindemann”
ISRC DEA621500313
INDEX 01 00:00:00
FILE “05 – Children of the Sun.wav” WAVE
TRACK 05 AUDIO
TITLE “Children of the Sun”
PERFORMER “Lindemann”
ISRC DEA621500314
INDEX 01 00:00:00
FILE “06 – Home Sweet Home.wav” WAVE
TRACK 06 AUDIO
TITLE “Home Sweet Home”
PERFORMER “Lindemann”
ISRC DEA621500315
INDEX 01 00:00:00
FILE “07 – Cowboy.wav” WAVE
TRACK 07 AUDIO
TITLE “Cowboy”
PERFORMER “Lindemann”
ISRC DEA621500316
INDEX 01 00:00:00
FILE “08 – Golden Shower.wav” WAVE
TRACK 08 AUDIO
TITLE “Golden Shower”
PERFORMER “Lindemann”
ISRC DEA621500317
INDEX 01 00:00:00
FILE “09 – Yukon.wav” WAVE
TRACK 09 AUDIO
TITLE “Yukon”
PERFORMER “Lindemann”
ISRC DEA621500318
INDEX 01 00:00:00
FILE “10 – Praise Abort.wav” WAVE
TRACK 10 AUDIO
TITLE “Praise Abort”
PERFORMER “Lindemann”
ISRC DEA621500319
INDEX 01 00:00:00
TRACK 11 AUDIO
TITLE “That’s My Heart”
PERFORMER “Lindemann”
ISRC DEA621500320
INDEX 00 04:41:62
FILE “11 – That’s My Heart.wav” WAVE
INDEX 01 00:00:00


Leave a Reply

Your email address will not be published. Required fields are marked *

Enter the text from the image below
 

This site uses Akismet to reduce spam. Learn how your comment data is processed.