Limp Bizkit – Three Dollar Bill, Y’all$ (Promo)




No Cover available

Artist: Limp Bizkit
Year: 1997
Genre: Metal
Notes: Discogs
Add. Notes: Promo
Watch Songs on: YouTube
Cover incl.: Yes
Encoder: WavPack
Bitrate: ~900 kBit/s (44.1 kHz/16 Bit/s)
Log & Cue incl.: Yes/Yes
Size: 416,3 MB
Password: “slam” (without ” “)


All Downloads/Hosters are compatible

Download 1
KatFile.com
Turbobit.net
Rapidgator.net
FileFactory.com
Download 2
KatFile.com
Turbobit.net
Rapidgator.net
FileFactory.com

Tracklist:

1 Intro 0:48
2 Pollution 3:53
3 Counterfeit 5:08
4 Stuck 5:26
5 Nobody Loves Me 4:28
6 Sour 3:33
7 Stalemate 6:15
8 Clunk 4:04
9 Faith 2:26
10 Stinkfinger 3:04
11 Indigo Flow 2:23
12 Leech 2:13
13 Everything 16:26

EAC-Log, CUE-Sheed & NFO:

Click to open spoiler
Exact Audio Copy V0.99 prebeta 5 from 4. May 2009

Отчёт EAC об извлечении, выполненном 10. сентября 2010, 15:06

Limp Bizkit / Three Dollar Bill Y’all (Promo)

Дисковод: ASUS DRW-1814BLT Adapter: 5 ID: 0

Режим чтения : Достоверность
Использование точного потока : Да
Отключение кэша аудио : Да
Использование указателей C2 : Нет

Коррекция смещения при чтении : 6
Способность читать области Lead-in и Lead-out : Нет
Заполнение пропущенных сэмплов тишиной : Да
Удаление блоков с тишиной в начале и конце : Нет
При вычислениях CRC использовались нулевые сэмплы : Да
Интерфейс : Встроенный Win32-интерфейс для Win NT/2000

Выходной формат : Пользовательский кодировщик
Выбранный битрейт : 1024 kBit/s
Качество : Высокий
Добавление ID3-тэга : Нет
Утилита сжатия : C:\Program Files\Exact Audio Copy\Flac\wavpack.exe
Дополнительные параметры : -h %s %d

TOC извлечённого CD

Трек | Старт | Длительность | Начальный сектор | Конечный сектор
———————————————————————
1 | 0:00.00 | 0:48.12 | 0 | 3611
2 | 0:48.12 | 3:52.40 | 3612 | 21051
3 | 4:40.52 | 5:08.05 | 21052 | 44156
4 | 9:48.57 | 5:24.30 | 44157 | 68486
5 | 15:13.12 | 4:27.48 | 68487 | 88559
6 | 19:40.60 | 3:32.65 | 88560 | 104524
7 | 23:13.50 | 6:14.70 | 104525 | 132644
8 | 29:28.45 | 4:03.20 | 132645 | 150889
9 | 33:31.65 | 3:52.17 | 150890 | 168306
10 | 37:24.07 | 3:03.68 | 168307 | 182099
11 | 40:28.00 | 2:23.22 | 182100 | 192846
12 | 42:51.22 | 2:11.15 | 192847 | 202686
13 | 45:02.37 | 16:26.45 | 202687 | 276681

Характеристики диапазона извлечения и сообщения об ошибках

Выбранный диапазон

Имя файла C:\Users\Admin\Desktop\1997 – Three Dollar Bill Y’all (Promo)\Limp Bizkit – Three Dollar Bill Y’all (Promo).wav

Пиковый уровень 100.0 %
Качество диапазона 100.0 %
CRC теста 28A9E1CB
CRC копии 28A9E1CB
Копирование… OK

Ошибок не произошло

Конец отчёта

REM GENRE Alternative
REM DATE 1997
REM DISCID 980E690D
REM COMMENT “ExactAudioCopy v0.99pb5”
PERFORMER “Limp Bizkit”
TITLE “Three Dollar Bill, Y’all$ (Promo)”
FILE “Limp Bizkit – Three Dollar Bill, Y’all$ (Promo).wv” WAVE
TRACK 01 AUDIO
TITLE “Intro”
PERFORMER “Limp Bizkit”
INDEX 01 00:00:00
TRACK 02 AUDIO
TITLE “Pollution”
PERFORMER “Limp Bizkit”
INDEX 00 00:03:65
INDEX 01 00:48:12
TRACK 03 AUDIO
TITLE “Counterfeit”
PERFORMER “Limp Bizkit”
INDEX 00 00:52:02
INDEX 01 04:40:52
TRACK 04 AUDIO
TITLE “Stuck”
PERFORMER “Limp Bizkit”
INDEX 00 04:44:42
INDEX 01 09:48:57
TRACK 05 AUDIO
TITLE “Nobody Loves Me”
PERFORMER “Limp Bizkit”
INDEX 00 09:52:47
INDEX 01 15:13:12
TRACK 06 AUDIO
TITLE “Sour”
PERFORMER “Limp Bizkit”
INDEX 00 15:17:02
INDEX 01 19:40:60
TRACK 07 AUDIO
TITLE “Stalemate”
PERFORMER “Limp Bizkit”
INDEX 00 19:44:50
INDEX 01 23:13:50
TRACK 08 AUDIO
TITLE “Clunk”
PERFORMER “Limp Bizkit”
INDEX 00 23:17:40
INDEX 01 29:28:45
TRACK 09 AUDIO
TITLE “Faith”
PERFORMER “Limp Bizkit”
INDEX 00 29:32:35
INDEX 01 33:31:65
TRACK 10 AUDIO
TITLE “Stink Finger”
PERFORMER “Limp Bizkit”
INDEX 00 33:35:55
INDEX 01 37:24:07
TRACK 11 AUDIO
TITLE “Indigo Flow”
PERFORMER “Limp Bizkit”
INDEX 00 37:27:72
INDEX 01 40:28:00
TRACK 12 AUDIO
TITLE “Leech (Demo Version)”
PERFORMER “Limp Bizkit”
INDEX 00 40:31:65
INDEX 01 42:51:22
TRACK 13 AUDIO
TITLE “Everything”
PERFORMER “Limp Bizkit”
INDEX 01 45:02:37


Leave a Reply

Your email address will not be published. Required fields are marked *

Enter the text from the image below
 

This site uses Akismet to reduce spam. Learn how your comment data is processed.