Limp Bizkit – Gold Cobra (Deluxe Edition)




No Cover available

Artist: Limp Bizkit
Year: 2011
Genre: Metal
Notes: Discogs
Add. Notes: Deluxe Edition
Watch Songs on: YouTube
Cover incl.: Yes
Encoder: WavPack
Bitrate: ~1000 kBit/s (44.1 kHz/16 Bit/s)
Log & Cue incl.: Yes/Yes
Size: 484,4 MB
Password: “slam” (without ” “)


All Downloads/Hosters are compatible

Download 1
KatFile.com
Turbobit.net
Rapidgator.net
FileFactory.com
Download 2
KatFile.com
Turbobit.net
Rapidgator.net
FileFactory.com

Tracklist:

1 Introbra 1:21
2 Bring It Back 2:18
3 Gold Cobra 3:54
4 Shark Attack 3:27
5 Get A Life 4:54
6 Shotgun 4:33
7 Douche Bag 3:42
8 Walking Away 4:46
9 Loser 4:53
10 Autotunage 5:00
11 90.2.10 4:18
12 Why Try 2:51
13 Killer In You 3:46

Bonus Tracks:
14 Back Porch 3:23
15 My Own Cobain 3:41
16 Angels 3:21
17 Middle Finger 4:27

EAC-Log, CUE-Sheed & NFO:

Click to open spoiler
Exact Audio Copy V0.99 prebeta 5 from 4. May 2009

Отчёт EAC об извлечении, выполненном 28. июля 2011, 20:09

Limp Bizkit / Gold Cobra (Deluxe Version)

Дисковод: ASUS DRW-1814BLT Adapter: 3 ID: 0

Режим чтения : Достоверность
Использование точного потока : Да
Отключение кэша аудио : Да
Использование указателей C2 : Нет

Коррекция смещения при чтении : 6
Способность читать области Lead-in и Lead-out : Нет
Заполнение пропущенных сэмплов тишиной : Да
Удаление блоков с тишиной в начале и конце : Нет
При вычислениях CRC использовались нулевые сэмплы : Да
Интерфейс : Встроенный Win32-интерфейс для Win NT/2000

Выходной формат : Пользовательский кодировщик
Выбранный битрейт : 1024 kBit/s
Качество : Высокий
Добавление ID3-тэга : Нет
Утилита сжатия : C:\Program Files\Exact Audio Copy\Flac\wavpack.exe
Дополнительные параметры : -hm %s %d

TOC извлечённого CD

Трек | Старт | Длительность | Начальный сектор | Конечный сектор
———————————————————————
1 | 0:00.00 | 1:20.50 | 0 | 6049
2 | 1:20.50 | 2:17.41 | 6050 | 16365
3 | 3:38.16 | 3:53.40 | 16366 | 33880
4 | 7:31.56 | 3:26.47 | 33881 | 49377
5 | 10:58.28 | 4:54.10 | 49378 | 71437
6 | 15:52.38 | 4:32.68 | 71438 | 91905
7 | 20:25.31 | 3:42.14 | 91906 | 108569
8 | 24:07.45 | 4:45.43 | 108570 | 129987
9 | 28:53.13 | 4:53.37 | 129988 | 151999
10 | 33:46.50 | 5:00.16 | 152000 | 174515
11 | 38:46.66 | 4:18.10 | 174516 | 193875
12 | 43:05.01 | 2:51.27 | 193876 | 206727
13 | 45:56.28 | 3:46.05 | 206728 | 223682
14 | 49:42.33 | 3:22.71 | 223683 | 238903
15 | 53:05.29 | 3:40.47 | 238904 | 255450
16 | 56:46.01 | 3:20.64 | 255451 | 270514
17 | 60:06.65 | 4:27.03 | 270515 | 290542

Характеристики диапазона извлечения и сообщения об ошибках

Выбранный диапазон

Имя файла E:\Desktop\2011 – Gold Cobra (Deluxe Version) [Flip_Interscope Records, DS6945-277 469-8, Korea]\Limp Bizkit – Gold Cobra (Deluxe Version).wav

Пиковый уровень 100.0 %
Качество диапазона 100.0 %
CRC теста F8F28904
CRC копии F8F28904
Копирование… OK

Ошибок не произошло

Конец отчёта

REM GENRE Alternative
REM DATE 2011
REM DISCID F90F2111
REM COMMENT “ExactAudioCopy v0.99pb5”
PERFORMER “Limp Bizkit”
TITLE “Gold Cobra (Deluxe Version)”
FILE “Limp Bizkit – Gold Cobra (Deluxe Version).wv” WAVE
TRACK 01 AUDIO
TITLE “Introbra”
PERFORMER “Limp Bizkit”
INDEX 01 00:00:00
TRACK 02 AUDIO
TITLE “Bring It Back”
PERFORMER “Limp Bizkit”
INDEX 01 01:20:50
TRACK 03 AUDIO
TITLE “Gold Cobra”
PERFORMER “Limp Bizkit”
INDEX 01 03:38:16
TRACK 04 AUDIO
TITLE “Shark Attack”
PERFORMER “Limp Bizkit”
INDEX 01 07:31:56
TRACK 05 AUDIO
TITLE “Get A Life”
PERFORMER “Limp Bizkit”
INDEX 01 10:58:28
TRACK 06 AUDIO
TITLE “Shotgun”
PERFORMER “Limp Bizkit”
INDEX 01 15:52:38
TRACK 07 AUDIO
TITLE “Douche Bag”
PERFORMER “Limp Bizkit”
INDEX 01 20:25:31
TRACK 08 AUDIO
TITLE “Walking Away”
PERFORMER “Limp Bizkit”
INDEX 01 24:07:45
TRACK 09 AUDIO
TITLE “Loser”
PERFORMER “Limp Bizkit”
INDEX 01 28:53:13
TRACK 10 AUDIO
TITLE “Autotunage”
PERFORMER “Limp Bizkit”
INDEX 01 33:46:50
TRACK 11 AUDIO
TITLE “90.2.10”
PERFORMER “Limp Bizkit”
INDEX 01 38:46:66
TRACK 12 AUDIO
TITLE “Why Try”
PERFORMER “Limp Bizkit”
INDEX 01 43:05:01
TRACK 13 AUDIO
TITLE “Killer In You”
PERFORMER “Limp Bizkit”
INDEX 01 45:56:28
TRACK 14 AUDIO
TITLE “Back Porch”
PERFORMER “Limp Bizkit”
INDEX 01 49:42:33
TRACK 15 AUDIO
TITLE “My Own Cobain”
PERFORMER “Limp Bizkit”
INDEX 01 53:05:29
TRACK 16 AUDIO
TITLE “Angels”
PERFORMER “Limp Bizkit”
INDEX 01 56:46:01
TRACK 17 AUDIO
TITLE “Middle Finger Feat. Paul Wall”
PERFORMER “Limp Bizkit”
INDEX 00 60:06:46
INDEX 01 60:06:65


0

Publication author

offline 7 days

Chaos

3
Comments: 4Publics: 3565Registration: 02-02-2019
Spread the Download

Leave a Reply

Your email address will not be published. Required fields are marked *

Enter the text from the image below
 

This site uses Akismet to reduce spam. Learn how your comment data is processed.