Limp Bizkit – Chocolate Starfish And The Hot Dog Flavored Water (Promo)




No Cover available


Artist: Limp Bizkit
Year: 2000
Genre: Metal
Notes: Discogs
Add. Notes: Promo
Watch Songs on: YouTube
Cover incl.: Yes
Encoder: WavPack
Bitrate: ~800 kBit/s (44.1 kHz/16 Bit/s)
Log & Cue incl.: Yes/Yes
Size: 478,3 MB
Password: “slam” (without ” “)


All Downloads/Hosters are compatible

Download 1
KatFile.com
Turbobit.net
Rapidgator.net
FileFactory.com
Download 2
KatFile.com
Turbobit.net
Rapidgator.net
FileFactory.com

Tracklist:

1 Intro 1:18
2 Hot Dog 3:50
3 My Generation 3:41
4 Full Nelson 4:07
5 My Way 4:33
6 Rollin' (Air Raid Vehicle) 3:34
7 Livin' It Up 4:24
8 The One 3:42
9 Getcha Groove On 4:29
10 Take A Look Around 5:18
11 It'll Be Ok 5:06
12 Boiler 5:47
13 Hold On 5:47
14 Rollin' (Urban Assault Vehicle) 6:23
15 Outro 2:01
15b Hidden Track

EAC-Log, CUE-Sheed & NFO:

Click to open spoiler
Exact Audio Copy V0.99 prebeta 5 from 4. May 2009

Отчёт EAC об извлечении, выполненном 15. июля 2010, 11:29

Limp Bizkit / Chocolate Starfish And The Hot Dog Flavored Water (Promo)

Дисковод: ASUS DRW-1814BLT Adapter: 5 ID: 0

Режим чтения : Достоверность
Использование точного потока : Да
Отключение кэша аудио : Да
Использование указателей C2 : Нет

Коррекция смещения при чтении : 6
Способность читать области Lead-in и Lead-out : Нет
Заполнение пропущенных сэмплов тишиной : Да
Удаление блоков с тишиной в начале и конце : Нет
При вычислениях CRC использовались нулевые сэмплы : Да
Интерфейс : Встроенный Win32-интерфейс для Win NT/2000

Выходной формат : Пользовательский кодировщик
Выбранный битрейт : 128 kBit/s
Качество : Высокий
Добавление ID3-тэга : Нет
Утилита сжатия : C:\Program Files\Exact Audio Copy\Flac\wavpack.exe
Дополнительные параметры : -hm %s %d

TOC извлечённого CD

Трек | Старт | Длительность | Начальный сектор | Конечный сектор
———————————————————————
1 | 0:00.00 | 1:20.47 | 0 | 6046
2 | 1:20.47 | 3:48.67 | 6047 | 23213
3 | 5:09.39 | 3:41.45 | 23214 | 39833
4 | 8:51.09 | 4:07.10 | 39834 | 58368
5 | 12:58.19 | 4:32.69 | 58369 | 78837
6 | 17:31.13 | 3:33.28 | 78838 | 94840
7 | 21:04.41 | 4:24.27 | 94841 | 114667
8 | 25:28.68 | 5:43.17 | 114668 | 140409
9 | 31:12.10 | 4:48.40 | 140410 | 162049
10 | 36:00.50 | 5:23.18 | 162050 | 186292
11 | 41:23.68 | 5:06.26 | 186293 | 209268
12 | 46:30.19 | 6:59.45 | 209269 | 240738
13 | 53:29.64 | 5:47.70 | 240739 | 266833
14 | 59:17.59 | 6:23.23 | 266834 | 295581
15 | 65:41.07 | 10:09.04 | 295582 | 341260

Характеристики диапазона извлечения и сообщения об ошибках

Выбранный диапазон

Имя файла C:\Users\Admin\Desktop\2000 – Chocolate Starfish And The Hot Dog Flavored Water (Promo)\Limp Bizkit – Chocolate Starfish And The Hot Dog Flavored Water (Promo).wav

Пиковый уровень 100.0 %
Качество диапазона 100.0 %
CRC теста 940FCDBB
CRC копии 940FCDBB
Копирование… OK

Ошибок не произошло

AccurateRip: сводка

Трек 1 нет в базе данных
Трек 2 нет в базе данных
Трек 3 нет в базе данных
Трек 4 нет в базе данных
Трек 5 нет в базе данных
Трек 6 нет в базе данных
Трек 7 нет в базе данных
Трек 8 нет в базе данных
Трек 9 нет в базе данных
Трек 10 нет в базе данных
Трек 11 нет в базе данных
Трек 12 нет в базе данных
Трек 13 нет в базе данных
Трек 14 нет в базе данных
Трек 15 нет в базе данных

Ни одного трека нет в базе AccurateRip

Конец отчёта

REM GENRE Alternative
REM DATE 2000
REM DISCID C211C60F
REM COMMENT “ExactAudioCopy v0.99pb5”
PERFORMER “Limp Bizkit”
TITLE “Chocolate Starfish And The Hot Dog Flavored Water (Promo)”
FILE “Limp Bizkit – Chocolate Starfish And The Hot Dog Flavored Water (Promo).wv” WAVE
TRACK 01 AUDIO
TITLE “Intro”
PERFORMER “Limp Bizkit”
INDEX 01 00:00:00
TRACK 02 AUDIO
TITLE “Hot Dog”
PERFORMER “Limp Bizkit”
INDEX 01 01:20:47
TRACK 03 AUDIO
TITLE “My Generation”
PERFORMER “Limp Bizkit”
INDEX 01 05:09:39
TRACK 04 AUDIO
TITLE “Full Nelson”
PERFORMER “Limp Bizkit”
INDEX 01 08:51:09
TRACK 05 AUDIO
TITLE “My Way”
PERFORMER “Limp Bizkit”
INDEX 01 12:58:19
TRACK 06 AUDIO
TITLE “Rollin’ (Air Raid Vehicle)”
PERFORMER “Limp Bizkit”
INDEX 01 17:31:13
TRACK 07 AUDIO
TITLE “Livin’ It Up”
PERFORMER “Limp Bizkit”
INDEX 01 21:04:41
TRACK 08 AUDIO
TITLE “The One”
PERFORMER “Limp Bizkit”
INDEX 01 25:28:68
TRACK 09 AUDIO
TITLE “Getcha Groove On Feat. Xzibit”
PERFORMER “Limp Bizkit”
INDEX 01 31:12:10
TRACK 10 AUDIO
TITLE “Take A Look Around”
PERFORMER “Limp Bizkit”
INDEX 01 36:00:50
TRACK 11 AUDIO
TITLE “It’ll Be OK”
PERFORMER “Limp Bizkit”
INDEX 01 41:23:68
TRACK 12 AUDIO
TITLE “Boiler”
PERFORMER “Limp Bizkit”
INDEX 01 46:30:19
TRACK 13 AUDIO
TITLE “Hold On”
PERFORMER “Limp Bizkit”
INDEX 01 53:29:64
TRACK 14 AUDIO
TITLE “Rollin’ (Urban Assault Vehicle) Feat. Method Man, Redman And DMX”
PERFORMER “Limp Bizkit”
INDEX 01 59:17:59
TRACK 15 AUDIO
TITLE “Outro”
PERFORMER “Limp Bizkit”
INDEX 01 65:41:07


0

Publication author

offline 4 days

Chaos

3
Comments: 4Publics: 3565Registration: 02-02-2019
Spread the Download

Leave a Reply

Your email address will not be published. Required fields are marked *

Enter the text from the image below
 

This site uses Akismet to reduce spam. Learn how your comment data is processed.