Limp Bizkit – Chocolate Starfish And The Hot Dog Flavored Water (Japanese Edition)




No Cover available


Artist: Limp Bizkit
Year: 2000
Genre: Metal
Notes: Discogs
Add. Notes: Japanese Edition
Watch Songs on: YouTube
Cover incl.: Yes
Encoder: FLAC
Bitrate: ~900 kBit/s (44.1 kHz/16 Bit/s)
Log & Cue incl.: Yes/Yes
Size: 579,6 MB
Password: “slam” (without ” “)


All Downloads/Hosters are compatible

Download 1
KatFile.com
Turbobit.net
Rapidgator.net
FileFactory.com
Download 2
KatFile.com
Turbobit.net
Rapidgator.net
FileFactory.com

Tracklist:

CD 1
1 Intro 1:18
2 Hot Dog 3:50
3 My Generation 3:41
4 Full Nelson 4:07
5 My Way 4:33
6 Rollin' (Air Raid Vehicle) 3:34
7 Livin' It Up 4:24
8 The One 3:42
9 Getcha Groove On 4:29
10 Take A Look Around 5:18
11 It'll Be Ok 5:06
12 Boiler 5:47
13 Hold On 5:47
14 Rollin' (Urban Assualt Vehicle) 6:23
15 Outro 2:01

3" CD 2
1 Crushed 3:25
2 Faith 2:28
3 Counterfeit 5:08

EAC-Log, CUE-Sheed & NFO:

Click to open spoiler
Exact Audio Copy V0.99 prebeta 5 from 4. May 2009

EAC extraction logfile from 20. April 2010, 9:06

Limp Bizkit / Chocolate Starfish And The Hot Dog Flavored Water (Japan Edition)

Used drive : ASUS DRW-1814BLT Adapter: 5 ID: 0

Read mode : Secure
Utilize accurate stream : Yes
Defeat audio cache : Yes
Make use of C2 pointers : No

Read offset correction : 6
Overread into Lead-In and Lead-Out : No
Fill up missing offset samples with silence : Yes
Delete leading and trailing silent blocks : No
Null samples used in CRC calculations : Yes
Used interface : Native Win32 interface for Win NT & 2000

Used output format : User Defined Encoder
Selected bitrate : 1024 kBit/s
Quality : High
Add ID3 tag : No
Command line compressor : C:\Program Files (x86)\Exact Audio Copy\wavpack.exe
Additional command line options : -h %s %d

TOC of the extracted CD

Track | Start | Length | Start sector | End sector
———————————————————
1 | 0:00.00 | 1:18.57 | 0 | 5906
2 | 1:18.57 | 3:50.18 | 5907 | 23174
3 | 5:09.00 | 3:41.00 | 23175 | 39749
4 | 8:50.00 | 4:07.27 | 39750 | 58301
5 | 12:57.27 | 4:32.73 | 58302 | 78774
6 | 17:30.25 | 3:33.57 | 78775 | 94806
7 | 21:04.07 | 4:24.03 | 94807 | 114609
8 | 25:28.10 | 5:43.22 | 114610 | 140356
9 | 31:11.32 | 4:28.73 | 140357 | 160529
10 | 35:40.30 | 5:21.02 | 160530 | 184606
11 | 41:01.32 | 5:06.18 | 184607 | 207574
12 | 46:07.50 | 7:00.20 | 207575 | 239094
13 | 53:07.70 | 5:47.40 | 239095 | 265159
14 | 58:55.35 | 6:22.65 | 265160 | 293874
15 | 65:18.25 | 9:49.57 | 293875 | 338106

Range status and errors

Selected range

Filename C:\Users\Admin\Desktop\Limp Bizkit – Chocolate Starfish And The Hot Dog Flavored Water (Japan Edition) ’00\Limp Bizkit – Chocolate Starfish And The Hot Dog Flavored Water (Japan Edition).wav

Peak level 100.0 %
Range quality 99.9 %
Test CRC 89889F6F
Copy CRC 89889F6F
Copy OK

No errors occurred

AccurateRip summary

Track 1 accurately ripped (confidence 2) [6C2C39D9]
Track 2 accurately ripped (confidence 2) [C4E85052]
Track 3 accurately ripped (confidence 2) [CA15995C]
Track 4 accurately ripped (confidence 2) [018CA8AE]
Track 5 accurately ripped (confidence 2) [D56071B6]
Track 6 accurately ripped (confidence 2) [782C8395]
Track 7 accurately ripped (confidence 2) [9A42A0C9]
Track 8 accurately ripped (confidence 2) [6EFAC014]
Track 9 accurately ripped (confidence 2) [3FAEB231]
Track 10 accurately ripped (confidence 2) [273B955B]
Track 11 accurately ripped (confidence 2) [83A76C3B]
Track 12 accurately ripped (confidence 2) [1DE7FFC4]
Track 13 accurately ripped (confidence 2) [6FC27328]
Track 14 accurately ripped (confidence 2) [E25D3336]
Track 15 accurately ripped (confidence 2) [12E9317D]

All tracks accurately ripped

End of status report

REM GENRE Alternative
REM DATE 2000
REM DISCID C8119C0F
REM COMMENT “ExactAudioCopy v0.99pb5”
PERFORMER “Limp Bizkit”
TITLE “Chocolate Starfish And The Hot Dog Flavored Water (Japan Edition)”
FILE “Limp Bizkit – Chocolate Starfish And The Hot Dog Flavored Water (Japan Edition).wv” WAVE
TRACK 01 AUDIO
TITLE “Intro”
PERFORMER “Limp Bizkit”
INDEX 01 00:00:00
TRACK 02 AUDIO
TITLE “Hot Dog”
PERFORMER “Limp Bizkit”
INDEX 01 01:18:57
TRACK 03 AUDIO
TITLE “My Generation”
PERFORMER “Limp Bizkit”
INDEX 01 05:09:00
TRACK 04 AUDIO
TITLE “Full Nelson”
PERFORMER “Limp Bizkit”
INDEX 01 08:50:00
TRACK 05 AUDIO
TITLE “My Way”
PERFORMER “Limp Bizkit”
INDEX 01 12:57:27
TRACK 06 AUDIO
TITLE “Rollin’ (Air Raid Vehicle)”
PERFORMER “Limp Bizkit”
INDEX 01 17:30:25
TRACK 07 AUDIO
TITLE “Livin’ It Up”
PERFORMER “Limp Bizkit”
INDEX 01 21:04:07
TRACK 08 AUDIO
TITLE “The One”
PERFORMER “Limp Bizkit”
INDEX 01 25:28:10
TRACK 09 AUDIO
TITLE “Getcha Groove On Feat. Xzibit”
PERFORMER “Limp Bizkit”
INDEX 00 29:10:38
INDEX 01 31:11:32
TRACK 10 AUDIO
TITLE “Take A Look Around”
PERFORMER “Limp Bizkit”
INDEX 01 35:40:30
TRACK 11 AUDIO
TITLE “It’ll Be Ok”
PERFORMER “Limp Bizkit”
INDEX 01 41:01:32
TRACK 12 AUDIO
TITLE “Boiler”
PERFORMER “Limp Bizkit”
INDEX 01 46:07:50
TRACK 13 AUDIO
TITLE “Hold On”
PERFORMER “Limp Bizkit”
INDEX 00 51:55:01
INDEX 01 53:07:70
TRACK 14 AUDIO
TITLE “Rollin’ (Urban Assault Vehicle) Feat. Method Man, Redman And DMX”
PERFORMER “Limp Bizkit”
INDEX 01 58:55:35
TRACK 15 AUDIO
TITLE “Outro”
PERFORMER “Limp Bizkit”
INDEX 01 65:18:25


Leave a Reply

Your email address will not be published. Required fields are marked *

Enter the text from the image below
 

This site uses Akismet to reduce spam. Learn how your comment data is processed.