Letzte Instanz – Wir Sind Gold (Limited Edition)




Artist: Letzte Instanz
Year: 2007
Genre: Alternative
Notes: Discogs
Add. Notes: Limited Edition
Cover incl.: No
Encoder: FLAC
Bitrate: ~1000 kBit/s (44.1 kHz/16 Bit/s)
Log & Cue incl.: Yes
Size: 460 MB
Password: “slam” (without ” “)


All Downloads/Hosters are compatible

Download 1
KatFile.com
Rapidgator.net
Turbobit.net
FileFactory.com
Download 2
KatFile.com
Rapidgator.net
Turbobit.net
FileFactory.com

Tracklist:

1 - Du Und Ich - 3:32
2 - Morgenrot - 3:53
3 - Sturmvogel - 3:55
4 - Wir Sind Allein - 4:35
5 - Komm Nie Zurück - 3:40
6 - Der Ewige Kreis - 5:02
7 - Monument Der Stille - 4:12
8 - Meine Innere Stimme I - 3:49
9 - Worte Brennen Gut - 4:02
10 - Maskenball - 3:52
11 - Sie Kommen - 3:46
12 - Und Das Meer... - 4:06
13 - Frei - 3:30
14 - Jeden Abend - 5:04
Bonustracks
15 - Mein Ton - 4:45
16 - Meine Innere Stimme II - 3:34

EAC-Log, CUE-Sheed & NFO:

Click to open spoiler
Exact Audio Copy V0.99 prebeta 4 from 23. January 2008

EAC extraction logfile from 21. March 2009, 11:43

Letzte Instanz / Wir sind Gold

Used drive : BENQ DVD LS DW1655 Adapter: 0 ID: 0

Read mode : Secure
Utilize accurate stream : Yes
Defeat audio cache : Yes
Make use of C2 pointers : No

Read offset correction : 0
Overread into Lead-In and Lead-Out : No
Fill up missing offset samples with silence : Yes
Delete leading and trailing silent blocks : No
Null samples used in CRC calculations : Yes
Used interface : Native Win32 interface for Win NT & 2000

Used output format : User Defined Encoder
Selected bitrate : 1024 kBit/s
Quality : High
Add ID3 tag : No
Command line compressor : C:\Exact Audio Copy\Encoder\flac.exe
Additional command line options : -8 -T “Artist=%a” -T “Title=%t” -T “Album=%g” -T “Date=%y” -T “Tracknumber=%n” -T “Genre=%m” %s -o %d

TOC of the extracted CD

Track | Start | Length | Start sector | End sector
———————————————————
1 | 0:00.00 | 3:31.72 | 0 | 15896
2 | 3:31.72 | 3:52.53 | 15897 | 33349
3 | 7:24.50 | 3:55.17 | 33350 | 50991
4 | 11:19.67 | 4:35.20 | 50992 | 71636
5 | 15:55.12 | 3:40.29 | 71637 | 88165
6 | 19:35.41 | 5:01.73 | 88166 | 110813
7 | 24:37.39 | 4:11.39 | 110814 | 129677
8 | 28:49.03 | 3:49.01 | 129678 | 146853
9 | 32:38.04 | 4:02.13 | 146854 | 165016
10 | 36:40.17 | 3:52.00 | 165017 | 182416
11 | 40:32.17 | 3:46.21 | 182417 | 199387
12 | 44:18.38 | 4:05.68 | 199388 | 217830
13 | 48:24.31 | 3:30.32 | 217831 | 233612
14 | 51:54.63 | 5:03.44 | 233613 | 256381
15 | 56:58.32 | 4:44.70 | 256382 | 277751
16 | 61:43.27 | 3:34.15 | 277752 | 293816

Range status and errors

Selected range

Filename E:\Musik\Neue Alben\Letzte Instanz – Wir sind Gold.wav

Peak level 100.0 %
Range quality 100.0 %
Test CRC 4C0BCFD0
Copy CRC 4C0BCFD0
Copy OK

No errors occurred

End of status report

REM GENRE Rock
REM DATE 2007
REM DISCID D00F4D10
REM COMMENT “ExactAudioCopy v0.99pb4”
PERFORMER “Letzte Instanz”
TITLE “Wir sind Gold”
FILE “Letzte Instanz – Wir sind Gold.flac” WAVE
TRACK 01 AUDIO
TITLE “Du und ich”
PERFORMER “Letzte Instanz”
ISRC DES370700012
INDEX 01 00:00:00
TRACK 02 AUDIO
TITLE “Morgenrot”
PERFORMER “Letzte Instanz”
ISRC DES370700014
INDEX 00 03:28:62
INDEX 01 03:31:72
TRACK 03 AUDIO
TITLE “Sturmvogel”
PERFORMER “Letzte Instanz”
ISRC DES370700015
INDEX 00 07:21:03
INDEX 01 07:24:50
TRACK 04 AUDIO
TITLE “Wir sind allein”
PERFORMER “Letzte Instanz”
ISRC DES370700013
INDEX 00 11:16:16
INDEX 01 11:19:67
TRACK 05 AUDIO
TITLE “Komm nie zurück”
PERFORMER “Letzte Instanz”
ISRC DES370700016
INDEX 00 15:52:54
INDEX 01 15:55:12
TRACK 06 AUDIO
TITLE “Der ewige Kreis”
PERFORMER “Letzte Instanz”
ISRC DES370700016
INDEX 00 19:32:16
INDEX 01 19:35:41
TRACK 07 AUDIO
TITLE “Monument der Stille”
PERFORMER “Letzte Instanz”
ISRC DES370700017
INDEX 00 24:34:50
INDEX 01 24:37:39
TRACK 08 AUDIO
TITLE “Meine innere Stimme I”
PERFORMER “Letzte Instanz”
ISRC DES370700018
INDEX 00 28:46:73
INDEX 01 28:49:03
TRACK 09 AUDIO
TITLE “Worte brennen gut”
PERFORMER “Letzte Instanz”
ISRC DES370700020
INDEX 00 32:34:39
INDEX 01 32:38:04
TRACK 10 AUDIO
TITLE “Maskenball”
PERFORMER “Letzte Instanz”
ISRC DES370700020
INDEX 00 36:36:29
INDEX 01 36:40:17
TRACK 11 AUDIO
TITLE “Sie kommen”
PERFORMER “Letzte Instanz”
ISRC DES370700024
INDEX 00 40:28:47
INDEX 01 40:32:17
TRACK 12 AUDIO
TITLE “Und das Meer …”
PERFORMER “Letzte Instanz”
ISRC DES370700024
INDEX 00 44:15:03
INDEX 01 44:18:38
TRACK 13 AUDIO
TITLE “Frei”
PERFORMER “Letzte Instanz”
ISRC DES370700023
INDEX 00 48:22:33
INDEX 01 48:24:31
TRACK 14 AUDIO
TITLE “Jeden Abend”
PERFORMER “Letzte Instanz”
ISRC DES370700025
INDEX 00 51:51:55
INDEX 01 51:54:63
TRACK 15 AUDIO
TITLE “Mein Ton”
PERFORMER “Letzte Instanz”
ISRC DES370700026
INDEX 00 56:55:41
INDEX 01 56:58:32
TRACK 16 AUDIO
TITLE “Meine innere Stimme II”
PERFORMER “Letzte Instanz”
ISRC DES370700027
INDEX 00 61:40:58
INDEX 01 61:43:27


Leave a Reply

Your email address will not be published. Required fields are marked *

Enter the text from the image below
 

This site uses Akismet to reduce spam. Learn how your comment data is processed.