Letzte Instanz – Heilig (Limited Edition)




[Total: 0    Average: 0/5]

Artist: Letzte Instanz
Year: 2010
Genre: Rock
Notes: Discogs
Add. Notes: Limited Edition
Cover incl.: Yes
Encoder: FLAC
Bitrate: ~1000 kBit/s (44.1 kHz/16 Bit/s)
Log & Cue incl.: Yes
Size: 543 MB
Password: “slam” (without ” “)


All Downloads/Hosters are compatible

Download 1
KatFile.com
Turbobit.net
FileFactory.com
Rapidgator.net
Download 2
KatFile.com
Turbobit.net
FileFactory.com
Rapidgator.net

Tracklist:

1 - Sanctus - 0:42
2 - Unsterblich - 4:14
3 - Neue Helden - 3:37
4 - Schau In Mein Gesicht - 3:49
5 - Atme! - 3:31
6 - Für Dich - 4:15
7 - Dein Gott - 4:52
8 - Schlaf, Schlaf - 4:02
9 - Der Letzte Tag - 3:29
10 - Unsichtbar - 3:16
11 - Die Erhabene - 3:32
12 - Der Kuss - 4:38
13 - Eismeer - 4:01
14 - Winterträne - 5:15

EAC-Log, CUE-Sheed & NFO:

Click to open spoiler
Exact Audio Copy V0.99 prebeta 5 from 4. May 2009

EAC extraction logfile from 30. September 2010, 14:31

Letzte Instanz / Heilig (Limited Edition Digipack)

Used drive : TSSTcorpCDDVDW SH-S223C Adapter: 0 ID: 1

Read mode : Secure
Utilize accurate stream : Yes
Defeat audio cache : Yes
Make use of C2 pointers : No

Read offset correction : 697
Overread into Lead-In and Lead-Out : No
Fill up missing offset samples with silence : Yes
Delete leading and trailing silent blocks : No
Null samples used in CRC calculations : Yes
Used interface : Native Win32 interface for Win NT & 2000

Used output format : User Defined Encoder
Selected bitrate : 1024 kBit/s
Quality : High
Add ID3 tag : No
Command line compressor : C:\Program Files (x86)\Exact Audio Copy\Flac\flac.exe
Additional command line options : -8 -T “Artist=%a” -T “Title=%t” -T “Album=%g” -T “Date=%y” -T “Tracknumber=%n” -T “Genre=%m” %s -o %d

TOC of the extracted CD

Track | Start | Length | Start sector | End sector
———————————————————
1 | 0:00.00 | 0:42.10 | 0 | 3159
2 | 0:42.10 | 4:13.61 | 3160 | 22195
3 | 4:55.71 | 3:37.74 | 22196 | 38544
4 | 8:33.70 | 3:49.03 | 38545 | 55722
5 | 12:22.73 | 3:31.42 | 55723 | 71589
6 | 15:54.40 | 4:15.40 | 71590 | 90754
7 | 20:10.05 | 4:52.29 | 90755 | 112683
8 | 25:02.34 | 4:01.67 | 112684 | 130825
9 | 29:04.26 | 3:29.66 | 130826 | 146566
10 | 32:34.17 | 3:16.33 | 146567 | 161299
11 | 35:50.50 | 3:32.35 | 161300 | 177234
12 | 39:23.10 | 4:39.33 | 177235 | 198192
13 | 44:02.43 | 4:00.61 | 198193 | 216253
14 | 48:03.29 | 5:15.58 | 216254 | 239936

Range status and errors

Selected range

Filename D:\FLAC\Letzte Instanz – Heilig (Limited Edition Digipack).wav

Peak level 98.8 %
Range quality 100.0 %
Test CRC 26D189FB
Copy CRC 26D189FB
Copy OK

No errors occurred

AccurateRip summary

Track 1 not present in database
Track 2 not present in database
Track 3 not present in database
Track 4 not present in database
Track 5 not present in database
Track 6 not present in database
Track 7 not present in database
Track 8 not present in database
Track 9 not present in database
Track 10 not present in database
Track 11 not present in database
Track 12 not present in database
Track 13 not present in database
Track 14 not present in database

None of the tracks are present in the AccurateRip database

End of status report

REM GENRE Alternative
REM DATE 2010
REM DISCID C20C7F0E
REM COMMENT “ExactAudioCopy v0.99pb5”
PERFORMER “Letzte Instanz”
TITLE “Heilig (Limited Edition Digipack)”
FILE “Letzte Instanz – Heilig (Limited Edition Digipack).flac” WAVE
TRACK 01 AUDIO
TITLE “1. Sanctus ”
PERFORMER “Letzte Instanz”
INDEX 01 00:00:00
TRACK 02 AUDIO
TITLE “2. Unsterblich ”
PERFORMER “Letzte Instanz”
INDEX 01 00:42:10
TRACK 03 AUDIO
TITLE “3. Neue Helden ”
PERFORMER “Letzte Instanz”
INDEX 01 04:55:71
TRACK 04 AUDIO
TITLE “4. Schau in mein Gesicht ”
PERFORMER “Letzte Instanz”
INDEX 01 08:33:70
TRACK 05 AUDIO
TITLE “5. Atme! Reinhören”
PERFORMER “Letzte Instanz”
INDEX 01 12:22:73
TRACK 06 AUDIO
TITLE “6. Für Dich ”
PERFORMER “Letzte Instanz”
INDEX 01 15:54:40
TRACK 07 AUDIO
TITLE “7. Dein Gott ”
PERFORMER “Letzte Instanz”
INDEX 01 20:10:05
TRACK 08 AUDIO
TITLE “8. Schlaf, Schlaf ”
PERFORMER “Letzte Instanz”
INDEX 01 25:02:34
TRACK 09 AUDIO
TITLE “9. Der letzte Tag ”
PERFORMER “Letzte Instanz”
INDEX 01 29:04:26
TRACK 10 AUDIO
TITLE “10. Unsichtbar ”
PERFORMER “Letzte Instanz”
INDEX 01 32:34:17
TRACK 11 AUDIO
TITLE “11. Die Erhabene ”
PERFORMER “Letzte Instanz”
INDEX 01 35:50:50
TRACK 12 AUDIO
TITLE “12. Der Kuss ”
PERFORMER “Letzte Instanz”
INDEX 01 39:23:10
TRACK 13 AUDIO
TITLE “13. Eismeer ”
PERFORMER “Letzte Instanz”
INDEX 01 44:02:43
TRACK 14 AUDIO
TITLE “14. Winterträne”
PERFORMER “Letzte Instanz”
INDEX 01 48:03:29


Spread the Download

Leave a Reply

Your email address will not be published. Required fields are marked *

Enter the text from the image below
 

This site uses Akismet to reduce spam. Learn how your comment data is processed.