Letzte Instanz – Ewig (Limited Edition)




[Total: 0    Average: 0/5]

Artist: Letzte Instanz
Year: 2012
Genre: Rock
Notes: Discogs
Add. Notes: Limited Edition
Cover incl.: Yes
Encoder: FLAC
Bitrate: ~1000 kBit/s (44.1 kHz/16 Bit/s)
Log & Cue incl.: Yes
Size: 642,93 MB
Password: “slam” (without ” “)


All Downloads/Hosters are compatible

Download 1
Share-online.biz
KatFile.com
Rapidgator.net
NitroFlare.com
Download 2
Share-online.biz
KatFile.com
Rapidgator.net
NitroFlare.com

Tracklist:

1 - Aeternitas - 2:57
2 - Ewig - 4:12
3 - Nur Für Uns - 3:44
4 - Blind - 4:53
5 - Regenbogen - 4:29
6 - Wieder Einmal Rot - 4:19
7 - Tausendschön - 4:55
8 - Schwarzer Sand - 4:14
9 - Et In Arcadia Ego - 2:42
10 - Von Anfang An - 4:36
11 - Wo Das Meer... - 4:07
12 - Schuld - 3:51
13 - Unterwegs - 3:56
14 - Sing! - 3:14
15 - Mein Kind - 4:54
Bonus
16 - Fährmann - 4:25
17 - Der Wind - 4:27

EAC-Log, CUE-Sheed & NFO:

Click to open spoiler
Exact Audio Copy V1.0 beta 3 from 29. August 2011

Отчёт EAC об извлечении, выполненном 2. октября 2012, 12:58

Letzte Instanz / Ewig [Limited Edition]

Дисковод: _NEC DVD_RW ND-3520A Adapter: 0 ID: 1

Режим чтения : Достоверность
Использование точного потока : Да
Отключение кэша аудио : Да
Использование указателей C2 : Нет

Коррекция смещения при чтении : 48
Способность читать области Lead-in и Lead-out : Нет
Заполнение пропущенных сэмплов тишиной : Да
Удаление блоков с тишиной в начале и конце : Нет
При вычислениях CRC использовались нулевые сэмплы : Да
Интерфейс : Установленный внешний ASPI-интерфейс

Выходной формат : Пользовательский кодировщик
Выбранный битрейт : 1024 kBit/s
Качество : Высокий
Добавление ID3-тега : Нет
Утилита сжатия : C:\Program Files\Exact Audio Copy\Flac\flac.exe
Дополнительные параметры : -6 -V -T “Date=%year%” -T “Genre=%genre%” %source%

TOC извлечённого CD

Трек | Старт | Длительность | Начальный сектор | Конечный сектор
———————————————————————
1 | 0:00.00 | 2:57.39 | 0 | 13313
2 | 2:57.39 | 4:12.14 | 13314 | 32227
3 | 7:09.53 | 3:44.29 | 32228 | 49056
4 | 10:54.07 | 4:55.58 | 49057 | 71239
5 | 15:49.65 | 4:29.18 | 71240 | 91432
6 | 20:19.08 | 4:21.41 | 91433 | 111048
7 | 24:40.49 | 4:55.43 | 111049 | 133216
8 | 29:36.17 | 4:14.70 | 133217 | 152336
9 | 33:51.12 | 2:42.43 | 152337 | 164529
10 | 36:33.55 | 4:36.73 | 164530 | 185302
11 | 41:10.53 | 4:09.25 | 185303 | 204002
12 | 45:20.03 | 3:51.13 | 204003 | 221340
13 | 49:11.16 | 3:56.40 | 221341 | 239080
14 | 53:07.56 | 3:19.17 | 239081 | 254022
15 | 56:26.73 | 5:04.27 | 254023 | 276849
16 | 61:31.25 | 4:26.46 | 276850 | 296845
17 | 65:57.71 | 4:28.26 | 296846 | 316971

Характеристики диапазона извлечения и сообщения об ошибках

Выбранный диапазон

Имя файла C:\Letzte Instanz – Ewig [Limited Edition].wav

Пиковый уровень 100.0 %
Скорость извлечения 7.0 X
Качество диапазона 100.0 %
CRC теста A35397D0
CRC копии A35397D0
Копирование… OK

Ошибок не произошло

AccurateRip: сводка

Трек 1 : извлечено точно (доверие 1) [1123EEBB] (AR v2)
Трек 2 : извлечено точно (доверие 1) [5A209A50] (AR v2)
Трек 3 : извлечено точно (доверие 1) [750B9E60] (AR v2)
Трек 4 : извлечено точно (доверие 1) [34F8190C] (AR v2)
Трек 5 : извлечено точно (доверие 1) [DDB285DF] (AR v2)
Трек 6 : извлечено точно (доверие 1) [3314A4FB] (AR v2)
Трек 7 : извлечено точно (доверие 1) [67DE9DFD] (AR v2)
Трек 8 : извлечено точно (доверие 1) [5A281649] (AR v2)
Трек 9 : извлечено точно (доверие 1) [DA7CE193] (AR v2)
Трек 10 : извлечено точно (доверие 1) [55753FE1] (AR v2)
Трек 11 : извлечено точно (доверие 1) [C15027D8] (AR v2)
Трек 12 : извлечено точно (доверие 1) [FE8A55B5] (AR v2)
Трек 13 : извлечено точно (доверие 1) [E1358FB6] (AR v2)
Трек 14 : извлечено точно (доверие 1) [A9E27B30] (AR v2)
Трек 15 : извлечено точно (доверие 1) [E7F4182B] (AR v2)
Трек 16 : извлечено точно (доверие 1) [DF25D983] (AR v2)
Трек 17 : извлечено точно (доверие 1) [CE3312A1] (AR v2)

Все треки извлечены точно

Конец отчёта

==== Контрольная сумма отчёта 0B8A89910C95E54C332BA0C3E5E143F1F86C63929BF8986B56322E5664AC0C4A ====

REM GENRE “folk gothic”
REM DATE 2012
REM DISCID 0A108211
REM COMMENT “ExactAudioCopy v1.0b3”
PERFORMER “Letzte Instanz”
TITLE “Ewig [Limited Edition]”
FILE “Letzte Instanz – Ewig [Limited Edition].flac” WAVE
TRACK 01 AUDIO
TITLE “Aeternitas”
PERFORMER “Letzte Instanz”
ISRC DES371200047
INDEX 01 00:00:00
TRACK 02 AUDIO
TITLE “Ewig”
PERFORMER “Letzte Instanz”
ISRC DES371200048
INDEX 01 02:57:39
TRACK 03 AUDIO
TITLE “Nur Für Uns”
PERFORMER “Letzte Instanz”
ISRC DES371200049
INDEX 01 07:09:53
TRACK 04 AUDIO
TITLE “Blind (feat. Eisblume)”
PERFORMER “Letzte Instanz”
ISRC DES371200050
INDEX 01 10:54:07
TRACK 05 AUDIO
TITLE “Regenbogen”
PERFORMER “Letzte Instanz”
ISRC DES371200051
INDEX 00 15:47:66
INDEX 01 15:49:65
TRACK 06 AUDIO
TITLE “Wieder Einmal Rot”
PERFORMER “Letzte Instanz”
ISRC DES371200052
INDEX 01 20:19:08
TRACK 07 AUDIO
TITLE “Tausendschön”
PERFORMER “Letzte Instanz”
ISRC DES371200053
INDEX 00 24:38:50
INDEX 01 24:40:49
TRACK 08 AUDIO
TITLE “Schwarzer Sand”
PERFORMER “Letzte Instanz”
ISRC DES371200054
INDEX 01 29:36:17
TRACK 09 AUDIO
TITLE “Et In Arcadia Ego”
PERFORMER “Letzte Instanz”
ISRC DES371200055
INDEX 01 33:51:12
TRACK 10 AUDIO
TITLE “Von Anfang An”
PERFORMER “Letzte Instanz”
ISRC DES371200056
INDEX 01 36:33:55
TRACK 11 AUDIO
TITLE “Wo Das Meer…”
PERFORMER “Letzte Instanz”
ISRC DES371200057
INDEX 01 41:10:53
TRACK 12 AUDIO
TITLE “Schuld”
PERFORMER “Letzte Instanz”
ISRC DES371200058
INDEX 00 45:18:42
INDEX 01 45:20:03
TRACK 13 AUDIO
TITLE “Unterwegs”
PERFORMER “Letzte Instanz”
ISRC DES371200059
INDEX 01 49:11:16
TRACK 14 AUDIO
TITLE “Sing!”
PERFORMER “Letzte Instanz”
ISRC DES371200060
INDEX 01 53:07:56
TRACK 15 AUDIO
TITLE “Mein Kind”
PERFORMER “Letzte Instanz”
ISRC DES371200061
INDEX 00 56:21:72
INDEX 01 56:26:73
TRACK 16 AUDIO
TITLE “Fährmann [bonus track]”
PERFORMER “Letzte Instanz”
ISRC DES371200062
INDEX 00 61:21:26
INDEX 01 61:31:25
TRACK 17 AUDIO
TITLE “Der Wind [bonus track]”
PERFORMER “Letzte Instanz”
ISRC DES371200063
INDEX 01 65:57:71


Spread the Download

Leave a Reply

Your email address will not be published. Required fields are marked *

Enter the text from the image below
 

This site uses Akismet to reduce spam. Learn how your comment data is processed.