Letzte Instanz – Das Spiel… Sich Im Kreise Dreht (Reissue)




Artist: Letzte Instanz
Year: 1999/2006
Genre: Rock
Notes: Discogs
Add. Notes: Reissue
Cover incl.: Yes
Encoder: FLAC
Bitrate: ~1000 kBit/s (44.1 kHz/16 Bit/s)
Log & Cue incl.: Yes
Size: 469 MB
Password: “slam” (without ” “)


All Downloads/Hosters are compatible

Download 1
KatFile.com
Rapidgator.net
Turbobit.net
Download 2
KatFile.com
Rapidgator.net
Turbobit.net

Tracklist:

1 - Intro - 1:59
2 - Das Spiel Beginnt - 3:07
3 - Für Immer Und Ewig - 4:31
4 - Zarter Engel - 4:53
5 - Medusa - 4:19
6 - Singt Halleluja - 3:57
7 - Love Is A Shield - 4:38
8 - Schrei Der Wale - 4:59
9 - Rapunzel - 4:09
10 - Gebranntes Kind - 5:13
11 - Das Ist Der Tag - 4:22
12 - Opus No. I - 3:14
13 - Satyr - 3:13
14 - Mondfahrt - 4:10
15 - Das Spiel - 4:55

EAC-Log, CUE-Sheed & NFO:

Click to open spoiler
Exact Audio Copy V0.99 prebeta 4 from 23. January 2008

Отчёт EAC об извлечении, выполненном 17. апреля 2009, 14:57

Letzte Instanz / Das Spiel

Дисковод: Optiarc DVD RW AD-7170A Adapter: 0 ID: 0

Режим чтения : Достоверность
Использование точного потока : Да
Отключение кэша аудио : Да
Использование указателей C2 : Нет

Коррекция смещения при чтении : 48
Способность читать области Lead-in и Lead-out : Нет
Заполнение пропущенных сэмплов тишиной : Да
Удаление блоков с тишиной в начале и конце : Нет
При вычислениях CRC использовались нулевые сэмплы : Да
Интерфейс : Встроенный Win32-интерфейс для Win NT/2000

Выходной формат : Пользовательский кодировщик
Выбранный битрейт : 1024 kBit/s
Качество : Высокий
Добавление ID3-тэга : Нет
Утилита сжатия : C:\Program Files\Exact Audio Copy\FLAC\FLAC.EXE
Дополнительные параметры : -6 -V -T “ARTIST=%a” -T “TITLE=%t” -T “ALBUM=%g” -T “DATE=%y” -T “TRACKNUMBER=%n” -T “GENRE=%m” -T “COMMENT=%e” %s -o %d

TOC извлечённого CD

Трек | Старт | Длительность | Начальный сектор | Конечный сектор
———————————————————————
1 | 0:00.00 | 1:57.54 | 0 | 8828
2 | 1:57.54 | 3:06.49 | 8829 | 22827
3 | 5:04.28 | 4:31.40 | 22828 | 43192
4 | 9:35.68 | 4:52.64 | 43193 | 65156
5 | 14:28.57 | 4:18.25 | 65157 | 84531
6 | 18:47.07 | 3:57.04 | 84532 | 102310
7 | 22:44.11 | 4:37.58 | 102311 | 123143
8 | 27:21.69 | 4:58.24 | 123144 | 145517
9 | 32:20.18 | 4:08.43 | 145518 | 164160
10 | 36:28.61 | 5:13.07 | 164161 | 187642
11 | 41:41.68 | 4:21.33 | 187643 | 207250
12 | 46:03.26 | 3:12.63 | 207251 | 221713
13 | 49:16.14 | 3:12.00 | 221714 | 236113
14 | 52:28.14 | 4:08.64 | 236114 | 254777
15 | 56:37.03 | 4:56.28 | 254778 | 277005

Характеристики диапазона извлечения и сообщения об ошибках

Выбранный диапазон

Имя файла D:\Мои документы\Letzte Instanz – Das Spiel.wav

Пиковый уровень 98.8 %
Качество диапазона 99.9 %
CRC теста AF17FFDE
CRC копии AF17FFDE
Копирование… OK

Ошибок не произошло

Конец отчёта

REM GENRE “folk gothic”
REM DATE 2006
REM DISCID D60E6D0F
REM COMMENT “ExactAudioCopy v0.99pb4”
PERFORMER “Letzte Instanz”
TITLE “Das Spiel”
FILE “Letzte Instanz – Das Spiel.flac” WAVE
TRACK 01 AUDIO
TITLE “Intro”
PERFORMER “Letzte Instanz”
INDEX 01 00:00:00
TRACK 02 AUDIO
TITLE “Das Spiel Beginnt”
PERFORMER “Letzte Instanz”
INDEX 01 01:57:54
TRACK 03 AUDIO
TITLE “Fur Immer Und Ewig”
PERFORMER “Letzte Instanz”
INDEX 01 05:04:28
TRACK 04 AUDIO
TITLE “Zarter Engel”
PERFORMER “Letzte Instanz”
INDEX 01 09:35:68
TRACK 05 AUDIO
TITLE “Medusa”
PERFORMER “Letzte Instanz”
INDEX 01 14:28:57
TRACK 06 AUDIO
TITLE “Singt Halleluja”
PERFORMER “Letzte Instanz”
INDEX 01 18:47:07
TRACK 07 AUDIO
TITLE “Love Is A Shield”
PERFORMER “Letzte Instanz”
INDEX 01 22:44:11
TRACK 08 AUDIO
TITLE “Schrei Der Wale”
PERFORMER “Letzte Instanz”
INDEX 01 27:21:69
TRACK 09 AUDIO
TITLE “Rapunzel”
PERFORMER “Letzte Instanz”
INDEX 01 32:20:18
TRACK 10 AUDIO
TITLE “Gebranntes Kind”
PERFORMER “Letzte Instanz”
INDEX 01 36:28:61
TRACK 11 AUDIO
TITLE “Das Ist Der Tag”
PERFORMER “Letzte Instanz”
INDEX 01 41:41:68
TRACK 12 AUDIO
TITLE “Opus No. I”
PERFORMER “Letzte Instanz”
INDEX 01 46:03:26
TRACK 13 AUDIO
TITLE “Satyr”
PERFORMER “Letzte Instanz”
INDEX 01 49:16:14
TRACK 14 AUDIO
TITLE “Mondfahrt”
PERFORMER “Letzte Instanz”
INDEX 01 52:28:14
TRACK 15 AUDIO
TITLE “Das Spiel”
PERFORMER “Letzte Instanz”
INDEX 01 56:37:03


Leave a Reply

Your email address will not be published. Required fields are marked *

Enter the text from the image below
 

This site uses Akismet to reduce spam. Learn how your comment data is processed.