Led Zeppelin – The Very Best Of Led Zeppelin – Early Days & Latter Days (Remastered)




Artist: Led Zeppelin
Year: 2002
Genre: Rock
Notes: Discogs
Add. Notes: Remastered
Cover incl.: Yes
Encoder: FLAC
Bitrate: ~900 kBit/s (44.1 kHz/16 Bit/s)
Log & Cue incl.: Yes
Size: 1811,5 MB
Password: “slam” (without ” “)


All Downloads/Hosters are compatible

Download 1
KatFile.com
Turbobit.net
FileFactory.com
Rapidgator.net
Download 2
KatFile.com
Turbobit.net
FileFactory.com
Rapidgator.net

Tracklist:

Early Days - The Best Of Led Zeppelin Volume One
1-01 Good Times, Bad Times 2:46
1-02 Babe I'm Gonna Leave You 6:42
1-03 Dazed And Confused 6:27
1-04 Communication Breakdown 2:28
1-05 Whole Lotta Love 5:34
1-06 What Is And What Should Never Be 4:44
1-07 Immigrant Song 2:27
1-08 Since I've Been Loving You 7:24
1-09 Black Dog 4:55
1-10 Rock And Roll 3:40
1-11 The Battle Of Evermore 5:52
1-12 When The Levee Breaks 7:10
1-13 Stairway To Heaven 8:02

Latter Days - The Best Of Led Zeppelin Volume Two
2-01 The Song Remains The Same 5:31
2-02 No Quarter 7:00
2-03 Houses Of The Holy 4:03
2-04 Trampled Underfoot 5:36
2-05 Kashmir 8:29
2-06 Ten Years Gone 6:32
2-07 Achilles Last Stand 10:22
2-08 Nobody's Fault But Mine 6:18
2-09 All My Love 5:52
2-10 In The Evening 6:51

EAC-Log, CUE-Sheed & NFO:

Click to open spoiler
Exact Audio Copy V1.0 beta 3 from 29. August 2011

EAC extraction logfile from 29. January 2014, 21:53

Led Zeppelin / The Best of Led Zeppelin – Volume I and Volume II [Disc 01]

Used drive : Optiarc DVD RW AD-7263S Adapter: 2 ID: 0

Read mode : Secure
Utilize accurate stream : Yes
Defeat audio cache : Yes
Make use of C2 pointers : No

Read offset correction : 48
Overread into Lead-In and Lead-Out : No
Fill up missing offset samples with silence : Yes
Delete leading and trailing silent blocks : No
Null samples used in CRC calculations : Yes
Used interface : Native Win32 interface for Win NT & 2000

Used output format : User Defined Encoder
Selected bitrate : 768 kBit/s
Quality : High
Add ID3 tag : No
Command line compressor : G:\Program Files\Exact Audio Copy\FLAC\FLAC.EXE
Additional command line options : -V -8 -T “Date=%year%” -T “Genre=%genre%” %source%

TOC of the extracted CD

Track | Start | Length | Start sector | End sector
———————————————————
1 | 0:00.00 | 2:46.20 | 0 | 12469
2 | 2:46.20 | 6:42.44 | 12470 | 42663
3 | 9:28.64 | 6:27.43 | 42664 | 71731
4 | 15:56.32 | 2:28.48 | 71732 | 82879
5 | 18:25.05 | 5:34.02 | 82880 | 107931
6 | 23:59.07 | 4:44.43 | 107932 | 129274
7 | 28:43.50 | 2:27.00 | 129275 | 140299
8 | 31:10.50 | 7:24.20 | 140300 | 173619
9 | 38:34.70 | 4:55.20 | 173620 | 195764
10 | 43:30.15 | 3:40.65 | 195765 | 212329
11 | 47:11.05 | 5:52.55 | 212330 | 238784
12 | 53:03.60 | 7:10.17 | 238785 | 271051
13 | 60:14.02 | 8:00.13 | 271052 | 307064
14 | 70:46.15 | 6:46.14 | 318465 | 348928

Range status and errors

Selected range

Filename H:\MUSIC\LZ\2002. Led Zeppelin – Early Days & Latter Days (Atlantic 7567-83619-2, Germany)\Early Days.wav

Peak level 100.0 %
Extraction speed 4.4 X
Range quality 99.9 %
Test CRC D8972B05
Copy CRC D8972B05
Copy OK

No errors occurred

AccurateRip summary

Track 1 accurately ripped (confidence 79) [0354E406] (AR v2)
Track 2 accurately ripped (confidence 78) [2B2F8A39] (AR v2)
Track 3 accurately ripped (confidence 78) [420A473D] (AR v2)
Track 4 accurately ripped (confidence 78) [04B0E5A8] (AR v2)
Track 5 accurately ripped (confidence 77) [BA140DC1] (AR v2)
Track 6 accurately ripped (confidence 80) [243E3D8D] (AR v2)
Track 7 accurately ripped (confidence 80) [20CF9BC2] (AR v2)
Track 8 accurately ripped (confidence 78) [01A37E3C] (AR v2)
Track 9 accurately ripped (confidence 79) [86A0E66D] (AR v2)
Track 10 accurately ripped (confidence 79) [B4F3588C] (AR v2)
Track 11 accurately ripped (confidence 78) [97543535] (AR v2)
Track 12 accurately ripped (confidence 78) [F5C1077C] (AR v2)
Track 13 accurately ripped (confidence 77) [47F6398A] (AR v2)

All tracks accurately ripped

End of status report

—- CUETools DB Plugin V2.1.3

[CTDB TOCID: XGA6QTLIGPkuzegJukS4QqkupaI-] found, Submit result: XGA6QTLIGPkuzegJukS4QqkupaI- has been confirmed
[24cb34b9] (336/347) Accurately ripped
[00648d36] (001/347) No match
[9e3e543d] (001/347) No match
[e04055bb] (001/347) No match
[aeda0f3f] (001/347) No match
[35a9eeff] (001/347) No match
[cc56b5c5] (001/347) No match
[f1317580] (001/347) No match
[96deb892] (001/347) No match
[8e4cbde7] (001/347) No match
[4607eafc] (001/347) No match
[3f10bccf] (001/347) No match

==== Log checksum B5B72F8EDEC30A8DFFCD6D691032698E5CC0DBF730F2AC8003B85859F4389EA6 ====

Exact Audio Copy V1.0 beta 3 from 29. August 2011

EAC extraction logfile from 29. January 2014, 20:11

LED ZEPPELIN / THE BEST OF LED ZEPPELIN – VOLUME I & VOLUME II [DISC 02]

Used drive : Optiarc DVD RW AD-7263S Adapter: 2 ID: 0

Read mode : Secure
Utilize accurate stream : Yes
Defeat audio cache : Yes
Make use of C2 pointers : No

Read offset correction : 48
Overread into Lead-In and Lead-Out : No
Fill up missing offset samples with silence : Yes
Delete leading and trailing silent blocks : No
Null samples used in CRC calculations : Yes
Used interface : Native Win32 interface for Win NT & 2000

Used output format : User Defined Encoder
Selected bitrate : 768 kBit/s
Quality : High
Add ID3 tag : No
Command line compressor : G:\Program Files\Exact Audio Copy\FLAC\FLAC.EXE
Additional command line options : -V -8 -T “Date=%year%” -T “Genre=%genre%” %source%

TOC of the extracted CD

Track | Start | Length | Start sector | End sector
———————————————————
1 | 0:00.00 | 5:31.42 | 0 | 24866
2 | 5:31.42 | 7:00.38 | 24867 | 56404
3 | 12:32.05 | 4:03.17 | 56405 | 74646
4 | 16:35.22 | 5:36.05 | 74647 | 99851
5 | 22:11.27 | 8:29.00 | 99852 | 138026
6 | 30:40.27 | 6:32.58 | 138027 | 167484
7 | 37:13.10 | 10:22.70 | 167485 | 214204
8 | 47:36.05 | 6:18.07 | 214205 | 242561
9 | 53:54.12 | 5:52.60 | 242562 | 269021
10 | 59:46.72 | 6:49.18 | 269022 | 299714
11 | 69:08.15 | 8:58.45 | 311115 | 351509

Range status and errors

Selected range

Filename H:\MUSIC\LZ\2002. Led Zeppelin – Early Days & Latter Days (Atlantic 7567-83619-2, Germany)\Latter Days.wav

Peak level 100.0 %
Extraction speed 4.4 X
Range quality 100.0 %
Test CRC 775F66CF
Copy CRC 775F66CF
Copy OK

No errors occurred

AccurateRip summary

Track 1 accurately ripped (confidence 42) [30FDFC8F] (AR v2)
Track 2 accurately ripped (confidence 42) [9A570E92] (AR v2)
Track 3 accurately ripped (confidence 42) [B8704EBA] (AR v2)
Track 4 accurately ripped (confidence 42) [D8DD3C04] (AR v2)
Track 5 accurately ripped (confidence 41) [7AC997B9] (AR v2)
Track 6 accurately ripped (confidence 42) [23A852FC] (AR v2)
Track 7 accurately ripped (confidence 40) [A2E0D26C] (AR v2)
Track 8 accurately ripped (confidence 42) [F0A2D57B] (AR v2)
Track 9 accurately ripped (confidence 42) [204FC190] (AR v2)
Track 10 accurately ripped (confidence 42) [884FFD38] (AR v2)

All tracks accurately ripped

End of status report

—- CUETools DB Plugin V2.1.3

[CTDB TOCID: Bi.QNPbXKDU1DnR3kruyPJAZhNM-] found, Submit result: Bi.QNPbXKDU1DnR3kruyPJAZhNM- has been confirmed
[71e5d792] (213/221) Accurately ripped
[f5655c63] (001/221) No match
[9e38cfd5] (001/221) No match
[efa55d8c] (001/221) No match
[95e01554] (001/221) No match
[480791fc] (001/221) No match
[194f0485] (001/221) No match
[0143f563] (001/221) No match
[d374a510] (001/221) No match

==== Log checksum F8ADB1458DAC7DD3FAB4138CA9EE8EB5C8C1145D18F55956B99EEDBD20CAE6A7 ====

REM GENRE “Hard Rock”
REM DATE 2002
REM DISCID C1122C0E
REM COMMENT “ExactAudioCopy v1.0b3”
PERFORMER “Led Zeppelin”
TITLE “The Best of Led Zeppelin – Volume I and Volume II [Disc 01]”
FILE “Early Days.flac” WAVE
TRACK 01 AUDIO
TITLE “Good Times, Bad Times”
PERFORMER “Led Zeppelin”
INDEX 01 00:00:00
TRACK 02 AUDIO
TITLE “Babe I’m Gonna Leave You”
PERFORMER “Led Zeppelin”
INDEX 01 02:46:20
TRACK 03 AUDIO
TITLE “Dazed And Confused”
PERFORMER “Led Zeppelin”
INDEX 00 09:27:41
INDEX 01 09:28:64
TRACK 04 AUDIO
TITLE “Communication Breakdown”
PERFORMER “Led Zeppelin”
INDEX 00 15:55:23
INDEX 01 15:56:32
TRACK 05 AUDIO
TITLE “Whole Lotta Love”
PERFORMER “Led Zeppelin”
INDEX 00 18:24:34
INDEX 01 18:25:05
TRACK 06 AUDIO
TITLE “What Is And What Should Never Be”
PERFORMER “Led Zeppelin”
INDEX 00 23:59:00
INDEX 01 23:59:07
TRACK 07 AUDIO
TITLE “Immigrant Song”
PERFORMER “Led Zeppelin”
INDEX 00 28:43:04
INDEX 01 28:43:50
TRACK 08 AUDIO
TITLE “Since I’ve Been Loving You”
PERFORMER “Led Zeppelin”
INDEX 00 31:08:54
INDEX 01 31:10:50
TRACK 09 AUDIO
TITLE “Black Dog”
PERFORMER “Led Zeppelin”
INDEX 00 38:33:64
INDEX 01 38:34:70
TRACK 10 AUDIO
TITLE “Rock And Roll”
PERFORMER “Led Zeppelin”
INDEX 00 43:29:07
INDEX 01 43:30:15
TRACK 11 AUDIO
TITLE “The Battle Of Evermore”
PERFORMER “Led Zeppelin”
INDEX 00 47:10:07
INDEX 01 47:11:05
TRACK 12 AUDIO
TITLE “When The Levee Breaks”
PERFORMER “Led Zeppelin”
INDEX 00 53:02:59
INDEX 01 53:03:60
TRACK 13 AUDIO
TITLE “Stairway To Heaven”
PERFORMER “Led Zeppelin”
INDEX 00 60:11:62
INDEX 01 60:14:02

REM GENRE “HARD ROCK”
REM DATE 2002
REM DISCID A0124E0B
REM COMMENT “ExactAudioCopy v1.0b3”
PERFORMER “LED ZEPPELIN”
TITLE “THE BEST OF LED ZEPPELIN – VOLUME I & VOLUME II [DISC 02]”
FILE “Latter Days.flac” WAVE
TRACK 01 AUDIO
TITLE “THE SONG REMAINS THE SAME”
PERFORMER “LED ZEPPELIN”
INDEX 01 00:00:00
TRACK 02 AUDIO
TITLE “NO QUARTER”
PERFORMER “LED ZEPPELIN”
INDEX 00 05:30:24
INDEX 01 05:31:42
TRACK 03 AUDIO
TITLE “HOUSES OF THE HOLY”
PERFORMER “LED ZEPPELIN”
INDEX 00 12:30:58
INDEX 01 12:32:05
TRACK 04 AUDIO
TITLE “TRAMPLED UNDERFOOD”
PERFORMER “LED ZEPPELIN”
INDEX 00 16:34:15
INDEX 01 16:35:22
TRACK 05 AUDIO
TITLE “KASHMIR”
PERFORMER “LED ZEPPELIN”
INDEX 00 22:10:58
INDEX 01 22:11:27
TRACK 06 AUDIO
TITLE “TEN YEARS GONE”
PERFORMER “LED ZEPPELIN”
INDEX 00 30:39:44
INDEX 01 30:40:27
TRACK 07 AUDIO
TITLE “ACHILLES LAST STAND”
PERFORMER “LED ZEPPELIN”
INDEX 00 37:11:63
INDEX 01 37:13:10
TRACK 08 AUDIO
TITLE “NOBODY’S FAULT BUT MINE”
PERFORMER “LED ZEPPELIN”
INDEX 00 47:35:00
INDEX 01 47:36:05
TRACK 09 AUDIO
TITLE “ALL MY LOVE”
PERFORMER “LED ZEPPELIN”
INDEX 00 53:52:23
INDEX 01 53:54:12
TRACK 10 AUDIO
TITLE “IN THE EVENING”
PERFORMER “LED ZEPPELIN”
INDEX 00 59:45:36
INDEX 01 59:46:72


Leave a Reply

Your email address will not be published. Required fields are marked *

This site uses Akismet to reduce spam. Learn how your comment data is processed.