Led Zeppelin – The Song Remains The Same




Artist: Led Zeppelin
Year: 1976/1987
Genre: Rock
Notes: Discogs
Add. Notes:
Cover incl.: Yes
Encoder: FLAC
Bitrate: ~800 kBit/s (44.1 kHz/16 Bit/s)
Log & Cue incl.: Yes
Size: 718 MB
Password: “slam” (without ” “)


All Downloads/Hosters are compatible

Download 1
KatFile.com
Turbobit.net
FileFactory.com
Rapidgator.net
Download 2
KatFile.com
Turbobit.net
FileFactory.com
Rapidgator.net

Tracklist:

1-1 - Rock And Roll - 4:03
1-2 - Celebration Day - 3:43
1-3 - The Song Remains The Same - 
6:00
1-4 - Rain Song - 8:24
1-5 - Dazed And Confused - 26:53

2-1 - No Quarter - 12:30
2-2 - Stairway To Heaven - 10:58
2-3 - Moby Dick - 12:47
2-4 - Whole Lotta Love - 14:24

EAC-Log, CUE-Sheed & NFO:

Click to open spoiler
Exact Audio Copy V0.99 prebeta 5 from 4. May 2009

EAC extraction logfile from 24. August 2013, 19:07

Led Zeppelin / The Song Remains The Same_CD1

Used drive : PLEXTOR DVDR PX-L890SA Adapter: 1 ID: 0

Read mode : Secure
Utilize accurate stream : Yes
Defeat audio cache : Yes
Make use of C2 pointers : No

Read offset correction : 6
Overread into Lead-In and Lead-Out : No
Fill up missing offset samples with silence : Yes
Delete leading and trailing silent blocks : No
Null samples used in CRC calculations : Yes
Used interface : Native Win32 interface for Win NT & 2000

Used output format : User Defined Encoder
Selected bitrate : 768 kBit/s
Quality : High
Add ID3 tag : No
Command line compressor : d:\Program Files\Exact Audio Copy\FLAC\FLAC.EXE
Additional command line options : -T “DATE=%y” -T “GENRE=%m” -8 -V %s

TOC of the extracted CD

Track | Start | Length | Start sector | End sector
———————————————————
1 | 0:00.32 | 4:02.35 | 32 | 18216
2 | 4:02.67 | 3:49.70 | 18217 | 35461
3 | 7:52.62 | 5:53.20 | 35462 | 61956
4 | 13:46.07 | 8:25.53 | 61957 | 99884
5 | 22:11.60 | 26:52.22 | 99885 | 220806

Range status and errors

Selected range

Filename H:\MUSIC\COLLECTION\Led Zeppelin\1976 The Song Remains The Same (USA SS201-2)\Led Zeppelin – The Song Remains The Same_CD1.wav

Peak level 100.0 %
Range quality 99.9 %
Test CRC 4C46A7E9
Copy CRC 4C46A7E9
Copy OK

No errors occurred

AccurateRip summary

Track 1 accurately ripped (confidence 22) [EE0A88AF]
Track 2 accurately ripped (confidence 22) [FC151E5E]
Track 3 accurately ripped (confidence 22) [9B72EE5C]
Track 4 accurately ripped (confidence 23) [C01A65A3]
Track 5 accurately ripped (confidence 20) [805C4944]

All tracks accurately ripped

End of status report

Exact Audio Copy V0.99 prebeta 5 from 4. May 2009

EAC extraction logfile from 8. September 2013, 20:11

Led Zeppelin / The Song Remains The Same (Disc 2)

Used drive : PLEXTOR DVDR PX-L890SA Adapter: 1 ID: 0

Read mode : Secure
Utilize accurate stream : Yes
Defeat audio cache : Yes
Make use of C2 pointers : No

Read offset correction : 6
Overread into Lead-In and Lead-Out : No
Fill up missing offset samples with silence : Yes
Delete leading and trailing silent blocks : No
Null samples used in CRC calculations : Yes
Used interface : Native Win32 interface for Win NT & 2000

Used output format : User Defined Encoder
Selected bitrate : 768 kBit/s
Quality : High
Add ID3 tag : No
Command line compressor : d:\Program Files\Exact Audio Copy\FLAC\FLAC.EXE
Additional command line options : -T “DATE=%y” -T “GENRE=%m” -8 -V %s

TOC of the extracted CD

Track | Start | Length | Start sector | End sector
———————————————————
1 | 0:00.32 | 12:29.68 | 32 | 56274
2 | 12:30.25 | 10:57.15 | 56275 | 105564
3 | 23:27.40 | 12:46.20 | 105565 | 163034
4 | 36:13.60 | 14:23.65 | 163035 | 227824

Range status and errors

Selected range

Filename H:\MUSIC\COLLECTION\Led Zeppelin\1976 The Song Remains The Same (USA SS201-2)\Led Zeppelin – The Song Remains The Same_CD2.wav

Peak level 97.4 %
Range quality 100.0 %
Test CRC E4B5C841
Copy CRC E4B5C841
Copy OK

No errors occurred

AccurateRip summary

Track 1 accurately ripped (confidence 19) [56A10118]
Track 2 accurately ripped (confidence 19) [EBCB4E6B]
Track 3 accurately ripped (confidence 18) [499AF65A]
Track 4 accurately ripped (confidence 16) [79A4FD9A]

All tracks accurately ripped

End of status report

REM GENRE Rock
REM DATE 1976
REM DISCID 370B8005
REM COMMENT “ExactAudioCopy v0.99pb5”
PERFORMER “Led Zeppelin”
TITLE “The Song Remains The Same_CD1”
FILE “Led Zeppelin – The Song Remains The Same_CD1.flac” WAVE
TRACK 01 AUDIO
TITLE “Rock And Roll”
PERFORMER “Led Zeppelin”
INDEX 00 00:00:00
INDEX 01 00:00:32
TRACK 02 AUDIO
TITLE “Celebration Day”
PERFORMER “Led Zeppelin”
INDEX 01 04:02:67
TRACK 03 AUDIO
TITLE “The Song Remains The Same”
PERFORMER “Led Zeppelin”
INDEX 01 07:52:62
TRACK 04 AUDIO
TITLE “Rain Song”
PERFORMER “Led Zeppelin”
INDEX 01 13:46:07
TRACK 05 AUDIO
TITLE “Dazed And Confused”
PERFORMER “Led Zeppelin”
INDEX 01 22:11:60

REM GENRE “Hard Rock”
REM DATE 1976
REM DISCID 2D0BDD04
REM COMMENT “ExactAudioCopy v0.99pb5”
PERFORMER “Led Zeppelin”
TITLE “The Song Remains The Same (Disc 2)”
FILE “Led Zeppelin – The Song Remains The Same_CD2.flac” WAVE
TRACK 01 AUDIO
TITLE “No Quarter”
PERFORMER “Led Zeppelin”
INDEX 00 00:00:00
INDEX 01 00:00:32
TRACK 02 AUDIO
TITLE “Stairway To Heaven”
PERFORMER “Led Zeppelin”
INDEX 01 12:30:25
TRACK 03 AUDIO
TITLE “Moby Dick”
PERFORMER “Led Zeppelin”
INDEX 01 23:27:40
TRACK 04 AUDIO
TITLE “Whole Lotta Love”
PERFORMER “Led Zeppelin”
INDEX 01 36:13:60


Leave a Reply

Your email address will not be published. Required fields are marked *

Enter the text from the image below
 

This site uses Akismet to reduce spam. Learn how your comment data is processed.