Led Zeppelin – The Song Remains The Same (Reissue)




Artist: Led Zeppelin
Year: 1976
Genre: Rock
Notes: Discogs
Add. Notes: Reissue
Cover incl.: Yes
Encoder: FLAC
Bitrate: ~800 kBit/s (44.1 kHz/16 Bit/s)
Log & Cue incl.: Yes/Yes
Size: 718,3 MB
Password: “slam” (without ” “)


All Downloads/Hosters are compatible

Download 1
KatFile.com
Turbobit.net
FileFactory.com
Rapidgator.net
Download 2
KatFile.com
Turbobit.net
FileFactory.com
Rapidgator.net

Tracklist:

1-1 Rock And Roll 4:03
1-2 Celebration Day 3:43
1-3 The Song Remains The Same 6:00
1-4 Rain Song 8:24
1-5 Dazed And Confused 26:53
2-1 No Quarter 12:30
2-2 Stairway To Heaven 10:58
2-3 Moby Dick 12:47
2-4 Whole Lotta Love 14:24

EAC-Log, CUE-Sheed & NFO:

Click to open spoiler
Exact Audio Copy V1.0 beta 3 from 29. August 2011

EAC extraction logfile from 5. December 2013, 16:27

Led Zeppelin / The Song Remains The Same (CD 1)

Used drive : PLEXTOR DVDR PX-L890SA Adapter: 1 ID: 0

Read mode : Secure
Utilize accurate stream : Yes
Defeat audio cache : Yes
Make use of C2 pointers : No

Read offset correction : 6
Overread into Lead-In and Lead-Out : No
Fill up missing offset samples with silence : Yes
Delete leading and trailing silent blocks : No
Null samples used in CRC calculations : Yes
Used interface : Native Win32 interface for Win NT & 2000

Used output format : User Defined Encoder
Selected bitrate : 768 kBit/s
Quality : High
Add ID3 tag : No
Command line compressor : G:\Program Files\Exact Audio Copy\FLAC\FLAC.EXE
Additional command line options : -V -8 -T “Date=%year%” -T “Genre=%genre%” %source%

TOC of the extracted CD

Track | Start | Length | Start sector | End sector
———————————————————
1 | 0:00.33 | 4:02.27 | 33 | 18209
2 | 4:02.60 | 3:49.70 | 18210 | 35454
3 | 7:52.55 | 5:53.20 | 35455 | 61949
4 | 13:46.00 | 8:25.53 | 61950 | 99877
5 | 22:11.53 | 26:52.17 | 99878 | 220794

Range status and errors

Selected range

Filename H:\MUSIC\1976. Led Zeppelin – The Song Remains The Same (Swan Song 289 402, Germany)\disc1\The Song Remains The Same (CD 1).wav

Peak level 100.0 %
Extraction speed 5.6 X
Range quality 100.0 %
Test CRC D2850E74
Copy CRC D2850E74
Copy OK

No errors occurred

AccurateRip summary

Track 1 accurately ripped (confidence 21) [464A1797] (AR v2)
Track 2 accurately ripped (confidence 21) [437D1586] (AR v2)
Track 3 accurately ripped (confidence 22) [30D8AFF1] (AR v2)
Track 4 accurately ripped (confidence 23) [DF6513E8] (AR v2)
Track 5 accurately ripped (confidence 22) [D3BA9D90] (AR v2)

All tracks accurately ripped

End of status report

—- CUETools DB Plugin V2.1.3

[CTDB TOCID: SBSN_btICrcZzq6kq9rn5bqqX3o-] found, Submit result: discs with pregaps not supported in this protocol version
[367017c4] (2/2) Differs in 13943 samples @00:00:32-00:00:44
You can use CUETools to repair this rip.

==== Log checksum 2D1F42E05652D761F06F432E9D20FDA0FA06E0FB07FF3ECDDE33E40F8C88BE55 ====

Exact Audio Copy V1.0 beta 3 from 29. August 2011

EAC extraction logfile from 6. December 2013, 13:35

Led Zeppelin / The Song Remains The Same (Disc 2)

Used drive : PLEXTOR DVDR PX-L890SA Adapter: 1 ID: 0

Read mode : Secure
Utilize accurate stream : Yes
Defeat audio cache : Yes
Make use of C2 pointers : No

Read offset correction : 6
Overread into Lead-In and Lead-Out : No
Fill up missing offset samples with silence : Yes
Delete leading and trailing silent blocks : No
Null samples used in CRC calculations : Yes
Used interface : Native Win32 interface for Win NT & 2000

Used output format : User Defined Encoder
Selected bitrate : 768 kBit/s
Quality : High
Add ID3 tag : No
Command line compressor : G:\Program Files\Exact Audio Copy\FLAC\FLAC.EXE
Additional command line options : -V -8 -T “Date=%year%” -T “Genre=%genre%” %source%

TOC of the extracted CD

Track | Start | Length | Start sector | End sector
———————————————————
1 | 0:00.33 | 12:29.60 | 33 | 56267
2 | 12:30.18 | 10:57.15 | 56268 | 105557
3 | 23:27.33 | 12:46.20 | 105558 | 163027
4 | 36:13.53 | 14:23.60 | 163028 | 227812

Range status and errors

Selected range

Filename H:\MUSIC\1976. Led Zeppelin – The Song Remains The Same (Swan Song 289 402, Germany)\disk2\The Song Remains The Same (Disc 2).wav

Peak level 97.4 %
Extraction speed 6.2 X
Range quality 100.0 %
Test CRC 71F51539
Copy CRC 71F51539
Copy OK

No errors occurred

AccurateRip summary

Track 1 accurately ripped (confidence 25) [BA91F842] (AR v2)
Track 2 accurately ripped (confidence 27) [D8D74373] (AR v2)
Track 3 accurately ripped (confidence 26) [11D14E77] (AR v2)
Track 4 accurately ripped (confidence 25) [132CE801] (AR v2)

All tracks accurately ripped

End of status report

—- CUETools DB Plugin V2.1.3

[CTDB TOCID: XfTUYyxAJPqKjmdmhcAsgYsnjP8-] found, Submit result: discs with pregaps not supported in this protocol version
[93c341e5] (2/2) Differs in 11896 samples @00:00:33-00:00:45
You can use CUETools to repair this rip.

==== Log checksum 971BA6EE735E09C7F441DBF321674D49218BB44AC550794CA247EE8750094ABA ====

REM GENRE Rock
REM DATE 1976
REM DISCID 370B7F05
REM COMMENT “ExactAudioCopy v1.0b3”
PERFORMER “Led Zeppelin”
TITLE “The Song Remains The Same (CD 1)”
FILE “The Song Remains The Same (CD 1).flac” WAVE
TRACK 01 AUDIO
TITLE “Rock And Roll”
PERFORMER “Led Zeppelin”
INDEX 00 00:00:00
INDEX 01 00:00:33
TRACK 02 AUDIO
TITLE “Celebration Day”
PERFORMER “Led Zeppelin”
INDEX 01 04:02:60
TRACK 03 AUDIO
TITLE “The Song Remains The Same”
PERFORMER “Led Zeppelin”
INDEX 00 07:52:54
INDEX 01 07:52:55
TRACK 04 AUDIO
TITLE “Rain Song”
PERFORMER “Led Zeppelin”
INDEX 00 13:45:74
INDEX 01 13:46:00
TRACK 05 AUDIO
TITLE “Dazed And Confused”
PERFORMER “Led Zeppelin”
INDEX 00 22:11:52
INDEX 01 22:11:53

REM GENRE “Hard Rock”
REM DATE 1976
REM DISCID 2D0BDD04
REM COMMENT “ExactAudioCopy v1.0b3”
PERFORMER “Led Zeppelin”
TITLE “The Song Remains The Same (Disc 2)”
FILE “The Song Remains The Same (Disc 2).flac” WAVE
TRACK 01 AUDIO
TITLE “No Quarter”
PERFORMER “Led Zeppelin”
INDEX 00 00:00:00
INDEX 01 00:00:33
TRACK 02 AUDIO
TITLE “Stairway To Heaven”
PERFORMER “Led Zeppelin”
INDEX 00 12:30:16
INDEX 01 12:30:18
TRACK 03 AUDIO
TITLE “Moby Dick”
PERFORMER “Led Zeppelin”
INDEX 00 23:27:31
INDEX 01 23:27:33
TRACK 04 AUDIO
TITLE “Whole Lotta Love”
PERFORMER “Led Zeppelin”
INDEX 00 36:13:51
INDEX 01 36:13:53


Leave a Reply

Your email address will not be published. Required fields are marked *

Enter the text from the image below
 

This site uses Akismet to reduce spam. Learn how your comment data is processed.