Led Zeppelin – The Song Remains The Same (Limited Remastered Japanese Edition)




No Cover available

Artist: Led Zeppelin
Year: 1976/2008
Genre: Rock
Notes: Discogs
Add. Notes: Limited Remastered Japanese Edition
Watch Songs on: YouTube
Cover incl.: Yes
Encoder: FLAC
Bitrate: ~900 kBit/s (44.1 kHz/16 Bit/s)
Log & Cue incl.: Yes/Yes
Size: 1132,6 MB
Password: “slam” (without ” “)


All Downloads/Hosters are compatible

Download 1
KatFile.com
Turbobit.net
Rapidgator.net
FileFactory.com
Download 2
KatFile.com
Turbobit.net
Rapidgator.net
FileFactory.com

Tracklist:

Disc 1
1 Rock And Roll 4:03
2 Celebration Day 3:43
3 Black Dog 3:46
4 Over The Hills And Far Away 6:11
5 Misty Mountain Hop 4:43
6 Since I've Been Loving You 8:24
7 No Quarter 10:38
8 Song Remains The Same 5:40
9 Rain Song 8:20
10 The Ocean 5:13

Disc 2
1 Dazed And Confused 29:18
2 Stairway To Heaven 10:53
3 Moby Dick 11:02
4 Heartbreaker 6:20
5 Whole Lotta Love 13:52

EAC-Log, CUE-Sheed & NFO:

Click to open spoiler
Exact Audio Copy V0.99 prebeta 5 from 4. May 2009

EAC extraction logfile from 31. August 2013, 21:02

Led Zeppelin / The Song Remains the Same (CD 1)

Used drive : PLEXTOR DVDR PX-L890SA Adapter: 1 ID: 0

Read mode : Secure
Utilize accurate stream : Yes
Defeat audio cache : Yes
Make use of C2 pointers : No

Read offset correction : 6
Overread into Lead-In and Lead-Out : No
Fill up missing offset samples with silence : Yes
Delete leading and trailing silent blocks : No
Null samples used in CRC calculations : Yes
Used interface : Native Win32 interface for Win NT & 2000

Used output format : User Defined Encoder
Selected bitrate : 768 kBit/s
Quality : High
Add ID3 tag : No
Command line compressor : d:\Program Files\Exact Audio Copy\FLAC\FLAC.EXE
Additional command line options : -T “DATE=%y” -T “GENRE=%m” -8 -V %s

TOC of the extracted CD

Track | Start | Length | Start sector | End sector
———————————————————
1 | 0:00.00 | 3:56.26 | 0 | 17725
2 | 3:56.26 | 3:37.44 | 17726 | 34044
3 | 7:33.70 | 3:46.23 | 34045 | 51017
4 | 11:20.18 | 6:11.06 | 51018 | 78848
5 | 17:31.24 | 4:43.28 | 78849 | 100101
6 | 22:14.52 | 8:23.64 | 100102 | 137890
7 | 30:38.41 | 10:38.37 | 137891 | 185777
8 | 41:17.03 | 5:39.49 | 185778 | 211251
9 | 46:56.52 | 8:20.27 | 211252 | 248778
10 | 55:17.04 | 5:13.14 | 248779 | 272267

Range status and errors

Selected range

Filename H:\MUSIC\COLLECTION\Led Zeppelin\Japan Box 2008\1976 The Song Remains The Same\Led Zeppelin – The Song Remains The Same CD1.wav

Peak level 100.0 %
Range quality 100.0 %
Test CRC EC198479
Copy CRC EC198479
Copy OK

No errors occurred

AccurateRip summary

Track 1 accurately ripped (confidence 164) [E1060C36]
Track 2 accurately ripped (confidence 164) [5E0963CC]
Track 3 accurately ripped (confidence 165) [F24D9EF1]
Track 4 accurately ripped (confidence 166) [1B85EFAB]
Track 5 accurately ripped (confidence 164) [1776C4A5]
Track 6 accurately ripped (confidence 164) [1334EB3C]
Track 7 accurately ripped (confidence 163) [6581CE7F]
Track 8 accurately ripped (confidence 164) [8FAEA006]
Track 9 accurately ripped (confidence 164) [0D12D6F4]
Track 10 accurately ripped (confidence 152) [B2EAB689]

All tracks accurately ripped

End of status report

Exact Audio Copy V0.99 prebeta 5 from 4. May 2009

EAC extraction logfile from 31. August 2013, 20:42

Led Zeppelin / The Song Remains The Same

Used drive : PLEXTOR DVDR PX-L890SA Adapter: 1 ID: 0

Read mode : Secure
Utilize accurate stream : Yes
Defeat audio cache : Yes
Make use of C2 pointers : No

Read offset correction : 6
Overread into Lead-In and Lead-Out : No
Fill up missing offset samples with silence : Yes
Delete leading and trailing silent blocks : No
Null samples used in CRC calculations : Yes
Used interface : Native Win32 interface for Win NT & 2000

Used output format : User Defined Encoder
Selected bitrate : 768 kBit/s
Quality : High
Add ID3 tag : No
Command line compressor : d:\Program Files\Exact Audio Copy\FLAC\FLAC.EXE
Additional command line options : -T “DATE=%y” -T “GENRE=%m” -8 -V %s

TOC of the extracted CD

Track | Start | Length | Start sector | End sector
———————————————————
1 | 0:00.00 | 29:18.32 | 0 | 131881
2 | 29:18.32 | 10:52.73 | 131882 | 180854
3 | 40:11.30 | 11:02.22 | 180855 | 230526
4 | 51:13.52 | 6:19.57 | 230527 | 259008
5 | 57:33.34 | 13:51.74 | 259009 | 321407

Range status and errors

Selected range

Filename H:\MUSIC\COLLECTION\Led Zeppelin\Japan Box 2008\1976 The Song Remains The Same\Led Zeppelin – The Song Remains The Same CD2.wav

Peak level 100.0 %
Range quality 100.0 %
Test CRC 3FF5124F
Copy CRC 3FF5124F
Copy OK

No errors occurred

AccurateRip summary

Track 1 accurately ripped (confidence 164) [FEE24CDB]
Track 2 accurately ripped (confidence 167) [66993B2C]
Track 3 accurately ripped (confidence 164) [FFFADFFA]
Track 4 accurately ripped (confidence 166) [E184D7D2]
Track 5 accurately ripped (confidence 148) [F78B7AA5]

All tracks accurately ripped

End of status report

REM GENRE Rock
REM DATE 1976
REM DISCID 890E2E0A
REM COMMENT “ExactAudioCopy v0.99pb5”
PERFORMER “Led Zeppelin”
TITLE “The Song Remains the Same (CD 1)”
FILE “Led Zeppelin – The Song Remains The Same CD1.flac” WAVE
TRACK 01 AUDIO
TITLE “Rock and Roll”
PERFORMER “Led Zeppelin”
INDEX 01 00:00:00
TRACK 02 AUDIO
TITLE “Celebration Day”
PERFORMER “Led Zeppelin”
INDEX 01 03:56:26
TRACK 03 AUDIO
TITLE “Black Dog (Previously Unreleased)”
PERFORMER “Led Zeppelin”
INDEX 01 07:33:70
TRACK 04 AUDIO
TITLE “Over the Hills and Far Away (Previously Unreleased)”
PERFORMER “Led Zeppelin”
INDEX 01 11:20:18
TRACK 05 AUDIO
TITLE “Misty Mountain Hop (Previously Unreleased)”
PERFORMER “Led Zeppelin”
INDEX 01 17:31:24
TRACK 06 AUDIO
TITLE “Since I’ve Been Loving You (Previously Unreleased)”
PERFORMER “Led Zeppelin”
INDEX 01 22:14:52
TRACK 07 AUDIO
TITLE “No Quarter”
PERFORMER “Led Zeppelin”
INDEX 01 30:38:41
TRACK 08 AUDIO
TITLE “The Song Remains the Same”
PERFORMER “Led Zeppelin”
INDEX 01 41:17:03
TRACK 09 AUDIO
TITLE “The Rain Song”
PERFORMER “Led Zeppelin”
INDEX 01 46:56:52
TRACK 10 AUDIO
TITLE “The Ocean (Previously Unreleased)”
PERFORMER “Led Zeppelin”
INDEX 01 55:17:04

REM GENRE Rock
REM DATE 1976
REM DISCID 3A10BD05
REM COMMENT “ExactAudioCopy v0.99pb5”
PERFORMER “Led Zeppelin”
TITLE “The Song Remains The Same”
FILE “Led Zeppelin – The Song Remains The Same CD2.flac” WAVE
TRACK 01 AUDIO
TITLE “Dazed And Confused”
PERFORMER “Led Zeppelin”
INDEX 01 00:00:00
TRACK 02 AUDIO
TITLE “Stairway To Heaven”
PERFORMER “Led Zeppelin”
INDEX 01 29:18:32
TRACK 03 AUDIO
TITLE “Moby Dick”
PERFORMER “Led Zeppelin”
INDEX 01 40:11:30
TRACK 04 AUDIO
TITLE “Heartbreaker”
PERFORMER “Led Zeppelin”
INDEX 01 51:13:52
TRACK 05 AUDIO
TITLE “Whole Lotta Love”
PERFORMER “Led Zeppelin”
INDEX 01 57:33:34


Leave a Reply

Your email address will not be published. Required fields are marked *

Enter the text from the image below
 

This site uses Akismet to reduce spam. Learn how your comment data is processed.