Led Zeppelin – The Song Remains The Same (Japanese Edition)




Artist: Led Zeppelin
Year: 1976/1987
Genre: Rock
Notes: Discogs
Add. Notes: Japanese Edition
Cover incl.: Yes
Encoder: FLAC
Bitrate: ~800 kBit/s (44.1 kHz/16 Bit/s)
Log & Cue incl.: Yes
Size: 833 MB
Password: “slam” (without ” “)


All Downloads/Hosters are compatible

Download 1
KatFile.com
Rapidgator.net
Turbobit.net
FileFactory.com
Download 2
KatFile.com
Rapidgator.net
Turbobit.net
FileFactory.com

Tracklist:

1-1. Rock And Roll
1-2. Celebration Day
1-3. The Song Remains The Same
1-4. Rain Song
1-5. Dazed And Confused
2-1. No Quarter
2-2. Stairway To Heaven
2-3. Moby Dick
2-4. Whole Lotta Love

EAC-Log, CUE-Sheed & NFO:

Click to open spoiler
Exact Audio Copy V0.99 prebeta 5 from 4. May 2009

EAC extraction logfile from 12. September 2013, 19:55

Led Zeppelin / The Song Remains The Same (Disc 1)

Used drive : PLEXTOR DVDR PX-L890SA Adapter: 1 ID: 0

Read mode : Secure
Utilize accurate stream : Yes
Defeat audio cache : Yes
Make use of C2 pointers : No

Read offset correction : 6
Overread into Lead-In and Lead-Out : No
Fill up missing offset samples with silence : Yes
Delete leading and trailing silent blocks : No
Null samples used in CRC calculations : Yes
Used interface : Native Win32 interface for Win NT & 2000

Used output format : User Defined Encoder
Selected bitrate : 768 kBit/s
Quality : High
Add ID3 tag : No
Command line compressor : d:\Program Files\Exact Audio Copy\FLAC\FLAC.EXE
Additional command line options : -T “DATE=%y” -T “GENRE=%m” -8 -V %s

TOC of the extracted CD

Track | Start | Length | Start sector | End sector
———————————————————
1 | 0:00.37 | 4:03.15 | 37 | 18276
2 | 4:03.52 | 3:49.70 | 18277 | 35521
3 | 7:53.47 | 5:53.20 | 35522 | 62016
4 | 13:46.67 | 8:25.53 | 62017 | 99944
5 | 22:12.45 | 26:52.42 | 99945 | 220886

Range status and errors

Selected range

Filename H:\MUSIC\COLLECTION\Led Zeppelin\1976 The Song Remains The Same (Japan 55XD 568-9)\Led Zeppelin – The Song Remains The Same (Disc 1).wav

Peak level 100.0 %
Range quality 100.0 %
Test CRC 9DE02B37
Copy CRC 9DE02B37
Copy OK

No errors occurred

AccurateRip summary

Track 1 accurately ripped (confidence 12) [92B49137]
Track 2 accurately ripped (confidence 12) [8DCE179E]
Track 3 accurately ripped (confidence 12) [17EA76F6]
Track 4 accurately ripped (confidence 12) [61C4C4ED]
Track 5 accurately ripped (confidence 12) [64F05DBC]

All tracks accurately ripped

End of status report

Exact Audio Copy V0.99 prebeta 5 from 4. May 2009

EAC extraction logfile from 12. September 2013, 20:13

Led Zeppelin / The Song Remains the Same (Disc 2)

Used drive : PLEXTOR DVDR PX-L890SA Adapter: 1 ID: 0

Read mode : Secure
Utilize accurate stream : Yes
Defeat audio cache : Yes
Make use of C2 pointers : No

Read offset correction : 6
Overread into Lead-In and Lead-Out : No
Fill up missing offset samples with silence : Yes
Delete leading and trailing silent blocks : No
Null samples used in CRC calculations : Yes
Used interface : Native Win32 interface for Win NT & 2000

Used output format : User Defined Encoder
Selected bitrate : 768 kBit/s
Quality : High
Add ID3 tag : No
Command line compressor : d:\Program Files\Exact Audio Copy\FLAC\FLAC.EXE
Additional command line options : -T “DATE=%y” -T “GENRE=%m” -8 -V %s

TOC of the extracted CD

Track | Start | Length | Start sector | End sector
———————————————————
1 | 0:00.37 | 12:30.48 | 37 | 56334
2 | 12:31.10 | 10:57.12 | 56335 | 105621
3 | 23:28.22 | 12:46.23 | 105622 | 163094
4 | 36:14.45 | 14:24.12 | 163095 | 227906

Range status and errors

Selected range

Filename H:\MUSIC\COLLECTION\Led Zeppelin\1976 The Song Remains The Same (Japan 55XD 568-9)\Led Zeppelin – The Song Remains the Same (Disc 2).wav

Peak level 97.4 %
Range quality 100.0 %
Test CRC 5B7F4324
Copy CRC 5B7F4324
Copy OK

No errors occurred

AccurateRip summary

Track 1 accurately ripped (confidence 13) [D70A1FE1]
Track 2 accurately ripped (confidence 13) [E8A74DB6]
Track 3 accurately ripped (confidence 13) [275E0E3D]
Track 4 accurately ripped (confidence 13) [B48B5847]

All tracks accurately ripped

End of status report

REM GENRE Rock
REM DATE 1976
REM DISCID 3A0B8105
REM COMMENT “ExactAudioCopy v0.99pb5”
PERFORMER “Led Zeppelin”
TITLE “The Song Remains The Same (Disc 1)”
FILE “Led Zeppelin – The Song Remains The Same (Disc 1).flac” WAVE
TRACK 01 AUDIO
TITLE “Rock And Roll”
PERFORMER “Led Zeppelin”
INDEX 00 00:00:00
INDEX 01 00:00:37
TRACK 02 AUDIO
TITLE “Celebration Day”
PERFORMER “Led Zeppelin”
INDEX 01 04:03:52
TRACK 03 AUDIO
TITLE “The Song Remains The Same”
PERFORMER “Led Zeppelin”
INDEX 01 07:53:47
TRACK 04 AUDIO
TITLE “Rain Song”
PERFORMER “Led Zeppelin”
INDEX 01 13:46:67
TRACK 05 AUDIO
TITLE “Dazed And Confused”
PERFORMER “Led Zeppelin”
INDEX 00 22:12:44
INDEX 01 22:12:45

REM GENRE Rock
REM DATE 1976
REM DISCID 270BDE04
REM COMMENT “ExactAudioCopy v0.99pb5”
PERFORMER “Led Zeppelin”
TITLE “The Song Remains the Same (Disc 2)”
FILE “Led Zeppelin – The Song Remains the Same (Disc 2).flac” WAVE
TRACK 01 AUDIO
TITLE “No Quarter”
PERFORMER “Led Zeppelin”
INDEX 00 00:00:00
INDEX 01 00:00:37
TRACK 02 AUDIO
TITLE “Stairway to Heaven”
PERFORMER “Led Zeppelin”
INDEX 01 12:31:10
TRACK 03 AUDIO
TITLE “Moby Dick”
PERFORMER “Led Zeppelin”
INDEX 01 23:28:22
TRACK 04 AUDIO
TITLE “Whole Lotta Love”
PERFORMER “Led Zeppelin”
INDEX 01 36:14:45


Leave a Reply

Your email address will not be published. Required fields are marked *

Enter the text from the image below
 

This site uses Akismet to reduce spam. Learn how your comment data is processed.