Led Zeppelin – The Song Remains The Same




No Cover available

Artist: Led Zeppelin
Year: 1976/1993
Genre: Rock
Notes: Discogs
Add. Notes:
Watch Songs on: YouTube
Cover incl.: Yes
Encoder: FLAC
Bitrate: ~800 kBit/s (44.1 kHz/16 Bit/s)
Log & Cue incl.: Yes/Yes
Size: 692,03 MB
Password: “slam” (without ” “)


All Downloads/Hosters are compatible

Download 1
KatFile.com
Turbobit.net
FileFactory.com
Rapidgator.net
Download 2
KatFile.com
Turbobit.net
FileFactory.com
Rapidgator.net

Tracklist:

1-1 Rock And Roll 4:03
1-2 Celebration Day 3:43
1-3 The Song Remains The Same 6:00
1-4 Rain Song 8:24
1-5 Dazed And Confused 26:53

2-1 No Quarter 12:30
2-2 Stairway To Heaven 10:58
2-3 Moby Dick 12:47
2-4 Whole Lotta Love 14:24 

EAC-Log, CUE-Sheed & NFO:

Click to open spoiler
Exact Audio Copy V0.99 prebeta 5 from 4. May 2009

Отчёт EAC об извлечении, выполненном 18. октября 2009, 20:33

Led Zeppelin / The Song Remains The Same (Disc 1)

Дисковод: MATSHITADVD-RAM UJ-850S Adapter: 1 ID: 0

Режим чтения : Достоверность
Использование точного потока : Да
Отключение кэша аудио : Да
Использование указателей C2 : Нет

Коррекция смещения при чтении : 102
Способность читать области Lead-in и Lead-out : Нет
Заполнение пропущенных сэмплов тишиной : Да
Удаление блоков с тишиной в начале и конце : Нет
При вычислениях CRC использовались нулевые сэмплы : Да
Интерфейс : Встроенный Win32-интерфейс для Win NT/2000

Выходной формат : Пользовательский кодировщик
Выбранный битрейт : 1024 kBit/s
Качество : Высокий
Добавление ID3-тэга : Нет
Утилита сжатия : C:\Program Files\Exact Audio Copy\Flac\flac.exe
Дополнительные параметры : -8 -V -T “ARTIST=%a” -T “TITLE=%t” -T “ALBUM=%g” -T “DATE=%y” -T “TRACKNUMBER=%n” -T “TOTALTRACKS=%x” -T “GENRE=%m” -T “ALBUM ARTIST=%v” -T “ALBUMARTIST=%v” -T “COMMENT=EAC V0.99 prebeta 5, Secure Mode, AccurateRip, FLAC -8” %s

TOC извлечённого CD

Трек | Старт | Длительность | Начальный сектор | Конечный сектор
———————————————————————
1 | 0:00.00 | 4:03.15 | 0 | 18239
2 | 4:03.15 | 3:49.67 | 18240 | 35481
3 | 7:53.07 | 5:53.23 | 35482 | 61979
4 | 13:46.30 | 8:25.52 | 61980 | 99906
5 | 22:12.07 | 26:52.35 | 99907 | 220841

Характеристики диапазона извлечения и сообщения об ошибках

Выбранный диапазон

Имя файла C:\Users\ALIK\Desktop\music\The Songs Remains The Same\disc1\Led Zeppelin – The Song Remains The Same (Disc 1).wav

Пиковый уровень 100.0 %
Качество диапазона 100.0 %
CRC теста 9F4491AC
CRC копии 9F4491AC
Копирование… OK

Ошибок не произошло

AccurateRip: сводка

Трек 1 точное извлечение (доверие 71) [36C32617]
Трек 2 точное извлечение (доверие 71) [D237EF1A]
Трек 3 точное извлечение (доверие 70) [B273796D]
Трек 4 точное извлечение (доверие 65) [DBA96246]
Трек 5 точное извлечение (доверие 65) [E2FF2169]

Все треки извлечены точно

Конец отчёта

Exact Audio Copy V0.99 prebeta 5 from 4. May 2009

Отчёт EAC об извлечении, выполненном 18. октября 2009, 22:22

Led Zeppelin / The Song Remains The Same CD2

Дисковод: MATSHITADVD-RAM UJ-850S Adapter: 1 ID: 0

Режим чтения : Достоверность
Использование точного потока : Да
Отключение кэша аудио : Да
Использование указателей C2 : Нет

Коррекция смещения при чтении : 102
Способность читать области Lead-in и Lead-out : Нет
Заполнение пропущенных сэмплов тишиной : Да
Удаление блоков с тишиной в начале и конце : Нет
При вычислениях CRC использовались нулевые сэмплы : Да
Интерфейс : Встроенный Win32-интерфейс для Win NT/2000

Выходной формат : Пользовательский кодировщик
Выбранный битрейт : 1024 kBit/s
Качество : Высокий
Добавление ID3-тэга : Нет
Утилита сжатия : C:\Program Files\Exact Audio Copy\Flac\flac.exe
Дополнительные параметры : -8 -V -T “ARTIST=%a” -T “TITLE=%t” -T “ALBUM=%g” -T “DATE=%y” -T “TRACKNUMBER=%n” -T “TOTALTRACKS=%x” -T “GENRE=%m” -T “ALBUM ARTIST=%v” -T “ALBUMARTIST=%v” -T “COMMENT=EAC V0.99 prebeta 5, Secure Mode, AccurateRip, FLAC -8” %s

TOC извлечённого CD

Трек | Старт | Длительность | Начальный сектор | Конечный сектор
———————————————————————
1 | 0:00.00 | 12:29.60 | 0 | 56234
2 | 12:29.60 | 10:57.15 | 56235 | 105524
3 | 23:27.00 | 12:46.20 | 105525 | 162994
4 | 36:13.20 | 14:24.10 | 162995 | 227804

Характеристики диапазона извлечения и сообщения об ошибках

Выбранный диапазон

Имя файла C:\Users\ALIK\Desktop\music\The Songs Remains The Same\disc2\Led Zeppelin – The Song Remains The Same CD2.wav

Пиковый уровень 97.6 %
Качество диапазона 99.9 %
CRC теста C07452FA
CRC копии C07452FA
Копирование… OK

Ошибок не произошло

AccurateRip: сводка

Трек 1 точное извлечение (доверие 25) [C1D2154E]
Трек 2 точное извлечение (доверие 25) [27E48DC9]
Трек 3 точное извлечение (доверие 25) [DBE1E7EA]
Трек 4 точное извлечение (доверие 22) [4ECACFF4]

Все треки извлечены точно

Конец отчёта

REM GENRE “Hard Rock”
REM DATE 1976
REM DISCID 3A0B8005
REM COMMENT “ExactAudioCopy v0.99pb5”
PERFORMER “Led Zeppelin”
TITLE “The Song Remains The Same (Disc 1)”
FILE “Led Zeppelin – The Song Remains The Same (Disc 1).flac” WAVE
TRACK 01 AUDIO
TITLE “Rock And Roll”
PERFORMER “Led Zeppelin”
INDEX 01 00:00:00
TRACK 02 AUDIO
TITLE “Celebration Day”
PERFORMER “Led Zeppelin”
INDEX 01 04:03:15
TRACK 03 AUDIO
TITLE “The Song Remains The Same”
PERFORMER “Led Zeppelin”
INDEX 01 07:53:07
TRACK 04 AUDIO
TITLE “Rain Song”
PERFORMER “Led Zeppelin”
INDEX 01 13:46:30
TRACK 05 AUDIO
TITLE “Dazed And Confused”
PERFORMER “Led Zeppelin”
INDEX 01 22:12:07

REM GENRE “Hard Rock”
REM DATE 1976
REM DISCID 2C0BDD04
REM COMMENT “ExactAudioCopy v0.99pb5”
PERFORMER “Led Zeppelin”
TITLE “The Song Remains The Same CD2”
FILE “Led Zeppelin – The Song Remains The Same CD2.flac” WAVE
TRACK 01 AUDIO
TITLE “No Quarter”
PERFORMER “Led Zeppelin”
INDEX 01 00:00:00
TRACK 02 AUDIO
TITLE “Stairway To Heaven”
PERFORMER “Led Zeppelin”
INDEX 01 12:29:60
TRACK 03 AUDIO
TITLE “Moby Dick”
PERFORMER “Led Zeppelin”
INDEX 01 23:27:00
TRACK 04 AUDIO
TITLE “Whole Lotta Love”
PERFORMER “Led Zeppelin”
INDEX 01 36:13:20


Leave a Reply

Your email address will not be published. Required fields are marked *

Enter the text from the image below
 

This site uses Akismet to reduce spam. Learn how your comment data is processed.