Led Zeppelin – Quick Diet (Bootleg)




Artist: Led Zeppelin
Year: 2012
Genre: Rock
Notes: Discogs
Add. Notes: Bootleg
Cover incl.: Yes
Encoder: FLAC
Bitrate: ~800 kBit/s (44.1 kHz/16 Bit/s)
Log & Cue incl.: Yes
Size: 997,07 MB
Password: “slam” (without ” “)


All Downloads/Hosters are compatible

Download 1
Turbobit.net
Rapidgator.net
UploadByte.com
UploadEver.com
JustUpload.io
Download 2
Turbobit.net
Rapidgator.net
UploadByte.com
UploadEver.com
JustUpload.io
Download 3
Turbobit.net
Rapidgator.net
UploadByte.com
UploadEver.com
JustUpload.io

Tracklist:

1-1 - Introduction 
1-2 - Rock And Roll 
1-3 - Celebration Day 
1-4 - Black Dog 
1-5 - Over The Hills And Far Away 
1-6 - Misty Mountain Hop 
1-7 - Since I've Been Loving You 
1-8 - No Quarter 
1-9 - The Song Remains The Same 
1-10 - The Rain Song 
1-11 - Dazed And Confused 
2-1 - Moby Dick 
2-2 - Stairway To Heaven 
2-3 - Heartbreaker 
2-4 - Whole Lotta Love 
2-5 - The Ocean 
3-1 - Stairway To Heaven 
3-2 - Moby Dick 
3-3 - Heartbreaker 
3-4 - Whole Lotta Love 
3-5 - Communication Breakdown 

EAC-Log, CUE-Sheed & NFO:

Click to open spoiler
X Lossless Decoder version 20121222 (142.2)

XLD extraction logfile from 2012-12-23 13:38:38 +0100

Led Zeppelin / Quick Diet

Used drive : HL-DT-ST DVDRW GX30N (revision RP09)
Media type : Pressed CD

Ripper mode : XLD Secure Ripper
Disable audio cache : OK for the drive with a cache less than 1375KiB
Make use of C2 pointers : NO
Read offset correction : 6
Max retry count : 100
Gap status : Analyzed, Appended

TOC of the extracted CD
Track | Start | Length | Start sector | End sector
———————————————————
1 | 00:00:00 | 22:02:46 | 0 | 99195
2 | 22:02:46 | 11:01:38 | 99196 | 148808
3 | 33:04:09 | 06:23:20 | 148809 | 177553
4 | 39:27:29 | 19:01:62 | 177554 | 263190
5 | 58:29:16 | 05:15:54 | 263191 | 286869

AccurateRip Summary
Disc not found in AccurateRip DB.

All Tracks
Album gain : -6.50 dB
Peak : 0.967529
Statistics
Read error : 0
Jitter error (maybe fixed) : 0
Retry sector count : 0
Damaged sector count : 0

Track 01
Filename : /Users/Kevin/Music/201 Led Zeppelin – Moby Dick.flac
Pre-gap length : 00:02:00

Track gain : -5.02 dB
Peak : 0.967529
CRC32 hash (test run) : B0682B12
CRC32 hash : B0682B12
CRC32 hash (skip zero) : D8DBB658
AccurateRip v1 signature : 1D6A5E5A
AccurateRip v2 signature : CADE47E4
->Track not present in AccurateRip database.
Statistics
Read error : 0
Jitter error (maybe fixed) : 0
Retry sector count : 0
Damaged sector count : 0

Track 02
Filename : /Users/Kevin/Music/202 Led Zeppelin – Stairway To Heaven.flac

Track gain : -7.20 dB
Peak : 0.967529
CRC32 hash (test run) : B6DF3FB9
CRC32 hash : B6DF3FB9
CRC32 hash (skip zero) : 1DA6C323
AccurateRip v1 signature : E1A42ED4
AccurateRip v2 signature : 778A5E35
->Track not present in AccurateRip database.
Statistics
Read error : 0
Jitter error (maybe fixed) : 0
Retry sector count : 0
Damaged sector count : 0

Track 03
Filename : /Users/Kevin/Music/203 Led Zeppelin – Heartbreaker.flac

Track gain : -7.16 dB
Peak : 0.967529
CRC32 hash (test run) : F1D352AF
CRC32 hash : F1D352AF
CRC32 hash (skip zero) : 078BD09F
AccurateRip v1 signature : D5DAAB83
AccurateRip v2 signature : DA09D26D
->Track not present in AccurateRip database.
Statistics
Read error : 0
Jitter error (maybe fixed) : 0
Retry sector count : 0
Damaged sector count : 0

Track 04
Filename : /Users/Kevin/Music/204 Led Zeppelin – Whole Lotta Love.flac

Track gain : -6.61 dB
Peak : 0.967529
CRC32 hash (test run) : 943F8130
CRC32 hash : 943F8130
CRC32 hash (skip zero) : 69172332
AccurateRip v1 signature : BB1F3CF2
AccurateRip v2 signature : A80BABC1
->Track not present in AccurateRip database.
Statistics
Read error : 0
Jitter error (maybe fixed) : 0
Retry sector count : 0
Damaged sector count : 0

Track 05
Filename : /Users/Kevin/Music/205 Led Zeppelin – The Ocean.flac

Track gain : -6.16 dB
Peak : 0.967529
CRC32 hash (test run) : 5766D222
CRC32 hash : 5766D222
CRC32 hash (skip zero) : A0B7C77F
AccurateRip v1 signature : 927C6DBE
AccurateRip v2 signature : 14A30371
->Track not present in AccurateRip database.
Statistics
Read error : 0
Jitter error (maybe fixed) : 0
Retry sector count : 0
Damaged sector count : 0

No errors occurred

End of status report

X Lossless Decoder version 20121222 (142.2)

XLD extraction logfile from 2012-12-23 13:13:30 +0100

Led Zeppelin / Quick Diet

Used drive : HL-DT-ST DVDRW GX30N (revision RP09)
Media type : Pressed CD

Ripper mode : XLD Secure Ripper
Disable audio cache : OK for the drive with a cache less than 1375KiB
Make use of C2 pointers : NO
Read offset correction : 6
Max retry count : 100
Gap status : Analyzed, Appended

TOC of the extracted CD
Track | Start | Length | Start sector | End sector
———————————————————
1 | 00:00:00 | 00:50:31 | 0 | 3780
2 | 00:50:31 | 03:47:33 | 3781 | 20838
3 | 04:37:64 | 02:25:50 | 20839 | 31763
4 | 07:03:39 | 06:38:61 | 31764 | 61674
5 | 13:42:25 | 06:37:50 | 61675 | 91499
6 | 20:20:00 | 04:47:40 | 91500 | 113064
7 | 25:07:40 | 08:53:61 | 113065 | 153100
8 | 34:01:26 | 09:16:22 | 153101 | 194822
9 | 43:17:48 | 05:19:46 | 194823 | 218793
10 | 48:37:19 | 07:37:56 | 218794 | 253124
11 | 56:15:00 | 02:44:04 | 253125 | 265428

AccurateRip Summary
Disc not found in AccurateRip DB.

All Tracks
Album gain : -4.64 dB
Peak : 0.967529
Statistics
Read error : 0
Jitter error (maybe fixed) : 0
Retry sector count : 0
Damaged sector count : 0

Track 01
Filename : /Users/Kevin/Music/101 Led Zeppelin – Introduction.flac
Pre-gap length : 00:02:00

Track gain : 9.10 dB
Peak : 0.871735
CRC32 hash (test run) : 6C51D4B0
CRC32 hash : 6C51D4B0
CRC32 hash (skip zero) : 63F341E1
AccurateRip v1 signature : 0F9E1A00
AccurateRip v2 signature : EBABC14B
->Track not present in AccurateRip database.
Statistics
Read error : 0
Jitter error (maybe fixed) : 0
Retry sector count : 0
Damaged sector count : 0

Track 02
Filename : /Users/Kevin/Music/102 Led Zeppelin – Rock and Roll.flac

Track gain : -4.26 dB
Peak : 0.954163
CRC32 hash (test run) : 3DD2B06A
CRC32 hash : 3DD2B06A
CRC32 hash (skip zero) : 55DF1400
AccurateRip v1 signature : DE86806F
AccurateRip v2 signature : 4A893304
->Track not present in AccurateRip database.
Statistics
Read error : 0
Jitter error (maybe fixed) : 0
Retry sector count : 0
Damaged sector count : 0

Track 03
Filename : /Users/Kevin/Music/103 Led Zeppelin – Celebration Day.flac

Track gain : -4.75 dB
Peak : 0.914093
CRC32 hash (test run) : 18CB5B23
CRC32 hash : 18CB5B23
CRC32 hash (skip zero) : F97C9190
AccurateRip v1 signature : 7FD83DC6
AccurateRip v2 signature : 063A8F3B
->Track not present in AccurateRip database.
Statistics
Read error : 0
Jitter error (maybe fixed) : 0
Retry sector count : 0
Damaged sector count : 0

Track 04
Filename : /Users/Kevin/Music/104 Led Zeppelin – Black Dog.flac

Track gain : -4.75 dB
Peak : 0.967529
CRC32 hash (test run) : DBDB0D04
CRC32 hash : DBDB0D04
CRC32 hash (skip zero) : 232387E0
AccurateRip v1 signature : 9B12F86F
AccurateRip v2 signature : 65A158D4
->Track not present in AccurateRip database.
Statistics
Read error : 0
Jitter error (maybe fixed) : 0
Retry sector count : 0
Damaged sector count : 0

Track 05
Filename : /Users/Kevin/Music/105 Led Zeppelin – Over The Hills and Far Away.flac

Track gain : -4.29 dB
Peak : 0.937988
CRC32 hash (test run) : 9C225B34
CRC32 hash : 9C225B34
CRC32 hash (skip zero) : DF74402A
AccurateRip v1 signature : E4C2BCD8
AccurateRip v2 signature : 354D9976
->Track not present in AccurateRip database.
Statistics
Read error : 0
Jitter error (maybe fixed) : 0
Retry sector count : 0
Damaged sector count : 0

Track 06
Filename : /Users/Kevin/Music/106 Led Zeppelin – Misty Mountain Hop.flac

Track gain : -5.61 dB
Peak : 0.941650
CRC32 hash (test run) : 1D43DE9F
CRC32 hash : 1D43DE9F
CRC32 hash (skip zero) : 536805E5
AccurateRip v1 signature : B2059A85
AccurateRip v2 signature : 3AD487C5
->Track not present in AccurateRip database.
Statistics
Read error : 0
Jitter error (maybe fixed) : 0
Retry sector count : 0
Damaged sector count : 0

Track 07
Filename : /Users/Kevin/Music/107 Led Zeppelin – Since I’ve Been Loving You.flac

Track gain : -4.98 dB
Peak : 0.942169
CRC32 hash (test run) : 0832226E
CRC32 hash : 0832226E
CRC32 hash (skip zero) : B1CB90A9
AccurateRip v1 signature : 972E4841
AccurateRip v2 signature : 38326795
->Track not present in AccurateRip database.
Statistics
Read error : 0
Jitter error (maybe fixed) : 0
Retry sector count : 0
Damaged sector count : 0

Track 08
Filename : /Users/Kevin/Music/108 Led Zeppelin – No Quarter.flac

Track gain : -4.09 dB
Peak : 0.935577
CRC32 hash (test run) : 66F1D9B5
CRC32 hash : 66F1D9B5
CRC32 hash (skip zero) : 50BD6624
AccurateRip v1 signature : 50BB9AFC
AccurateRip v2 signature : 52E6282A
->Track not present in AccurateRip database.
Statistics
Read error : 0
Jitter error (maybe fixed) : 0
Retry sector count : 0
Damaged sector count : 0

Track 09
Filename : /Users/Kevin/Music/109 Led Zeppelin – The Song Remains The Same.flac

Track gain : -4.83 dB
Peak : 0.928528
CRC32 hash (test run) : 736629F8
CRC32 hash : 736629F8
CRC32 hash (skip zero) : 89EC6118
AccurateRip v1 signature : 49787A32
AccurateRip v2 signature : 3867F9C0
->Track not present in AccurateRip database.
Statistics
Read error : 0
Jitter error (maybe fixed) : 0
Retry sector count : 0
Damaged sector count : 0

Track 10
Filename : /Users/Kevin/Music/110 Led Zeppelin – The Rain Song.flac

Track gain : -4.07 dB
Peak : 0.906006
CRC32 hash (test run) : 986D69A8
CRC32 hash : 986D69A8
CRC32 hash (skip zero) : FBD1908C
AccurateRip v1 signature : 73DA9C3F
AccurateRip v2 signature : 7D408499
->Track not present in AccurateRip database.
Statistics
Read error : 0
Jitter error (maybe fixed) : 0
Retry sector count : 0
Damaged sector count : 0

Track 11
Filename : /Users/Kevin/Music/111 Led Zeppelin – Dazed And Confused.flac

Track gain : -1.43 dB
Peak : 0.851807
CRC32 hash (test run) : 7B5E030C
CRC32 hash : 7B5E030C
CRC32 hash (skip zero) : A12C7B99
AccurateRip v1 signature : BF0185F3
AccurateRip v2 signature : BDEBCEAD
->Track not present in AccurateRip database.
Statistics
Read error : 0
Jitter error (maybe fixed) : 0
Retry sector count : 0
Damaged sector count : 0

No errors occurred

End of status report

X Lossless Decoder version 20121222 (142.2)

XLD extraction logfile from 2012-12-23 14:05:14 +0100

Led Zeppelin / Quick Diet

Used drive : HL-DT-ST DVDRW GX30N (revision RP09)
Media type : Pressed CD

Ripper mode : XLD Secure Ripper
Disable audio cache : OK for the drive with a cache less than 1375KiB
Make use of C2 pointers : NO
Read offset correction : 6
Max retry count : 100
Gap status : Analyzed, Appended

TOC of the extracted CD
Track | Start | Length | Start sector | End sector
———————————————————
1 | 00:00:00 | 11:26:06 | 0 | 51455
2 | 11:26:06 | 16:49:55 | 51456 | 127185
3 | 28:15:61 | 07:10:60 | 127186 | 159495
4 | 35:26:46 | 20:24:70 | 159496 | 251365
5 | 55:51:41 | 04:14:07 | 251366 | 270422

AccurateRip Summary
Disc not found in AccurateRip DB.

All Tracks
Album gain : -5.26 dB
Peak : 0.967529
Statistics
Read error : 0
Jitter error (maybe fixed) : 0
Retry sector count : 0
Damaged sector count : 0

Track 01
Filename : /Users/Kevin/Music/301 Led Zeppelin – Stairway To Heaven.flac
Pre-gap length : 00:02:00

Track gain : -3.92 dB
Peak : 0.967529
CRC32 hash (test run) : 0589A427
CRC32 hash : 0589A427
CRC32 hash (skip zero) : 6BF5BFFB
AccurateRip v1 signature : A87EFD85
AccurateRip v2 signature : A3322E7E
->Track not present in AccurateRip database.
Statistics
Read error : 0
Jitter error (maybe fixed) : 0
Retry sector count : 0
Damaged sector count : 0

Track 02
Filename : /Users/Kevin/Music/302 Led Zeppelin – Moby Dick.flac

Track gain : -2.23 dB
Peak : 0.967529
CRC32 hash (test run) : 1983D2B4
CRC32 hash : 1983D2B4
CRC32 hash (skip zero) : 1A146ECE
AccurateRip v1 signature : E0246C79
AccurateRip v2 signature : 9A637FE1
->Track not present in AccurateRip database.
Statistics
Read error : 0
Jitter error (maybe fixed) : 0
Retry sector count : 0
Damaged sector count : 0

Track 03
Filename : /Users/Kevin/Music/303 Led Zeppelin – Heartbreaker.flac

Track gain : -6.65 dB
Peak : 0.967529
CRC32 hash (test run) : 193FCF28
CRC32 hash : 193FCF28
CRC32 hash (skip zero) : B71374E9
AccurateRip v1 signature : 141EDBE4
AccurateRip v2 signature : 8C50EBE6
->Track not present in AccurateRip database.
Statistics
Read error : 0
Jitter error (maybe fixed) : 0
Retry sector count : 0
Damaged sector count : 0

Track 04
Filename : /Users/Kevin/Music/304 Led Zeppelin – Whole Lotta Love.flac

Track gain : -5.96 dB
Peak : 0.967529
CRC32 hash (test run) : 41CD68D8
CRC32 hash : 41CD68D8
CRC32 hash (skip zero) : 633DA383
AccurateRip v1 signature : D75BD8F1
AccurateRip v2 signature : 7D24F078
->Track not present in AccurateRip database.
Statistics
Read error : 0
Jitter error (maybe fixed) : 0
Retry sector count : 0
Damaged sector count : 0

Track 05
Filename : /Users/Kevin/Music/305 Led Zeppelin – Communication Breakdown.flac

Track gain : -5.87 dB
Peak : 0.967529
CRC32 hash (test run) : 1360FBFA
CRC32 hash : 1360FBFA
CRC32 hash (skip zero) : E990E8FF
AccurateRip v1 signature : C52FF99C
AccurateRip v2 signature : 723C3464
->Track not present in AccurateRip database.
Statistics
Read error : 0
Jitter error (maybe fixed) : 0
Retry sector count : 0
Damaged sector count : 0

No errors occurred

End of status report

TITLE “Quick Diet”
PERFORMER “Led Zeppelin”
REM GENRE “Rock”
REM DATE “1973”
REM DISCNUMBER 3
REM TOTALDISCS 3
REM DISCID 4A0E1505
REM REPLAYGAIN_ALBUM_GAIN -5.26 dB
REM REPLAYGAIN_ALBUM_PEAK 0.967529
FILE “301 Led Zeppelin – Stairway To Heaven.flac” WAVE
TRACK 01 AUDIO
TITLE “Stairway To Heaven”
REM REPLAYGAIN_TRACK_GAIN -3.92 dB
REM REPLAYGAIN_TRACK_PEAK 0.967529
INDEX 01 00:00:00
FILE “302 Led Zeppelin – Moby Dick.flac” WAVE
TRACK 02 AUDIO
TITLE “Moby Dick”
REM REPLAYGAIN_TRACK_GAIN -2.23 dB
REM REPLAYGAIN_TRACK_PEAK 0.967529
INDEX 01 00:00:00
FILE “303 Led Zeppelin – Heartbreaker.flac” WAVE
TRACK 03 AUDIO
TITLE “Heartbreaker”
REM REPLAYGAIN_TRACK_GAIN -6.65 dB
REM REPLAYGAIN_TRACK_PEAK 0.967529
INDEX 01 00:00:00
FILE “304 Led Zeppelin – Whole Lotta Love.flac” WAVE
TRACK 04 AUDIO
TITLE “Whole Lotta Love”
REM REPLAYGAIN_TRACK_GAIN -5.96 dB
REM REPLAYGAIN_TRACK_PEAK 0.967529
INDEX 01 00:00:00
FILE “305 Led Zeppelin – Communication Breakdown.flac” WAVE
TRACK 05 AUDIO
TITLE “Communication Breakdown”
REM REPLAYGAIN_TRACK_GAIN -5.87 dB
REM REPLAYGAIN_TRACK_PEAK 0.967529
INDEX 01 00:00:00

TITLE “Quick Diet”
PERFORMER “Led Zeppelin”
REM GENRE “Rock”
REM DATE “1973”
REM DISCNUMBER 2
REM TOTALDISCS 3
REM DISCID 420EF005
REM REPLAYGAIN_ALBUM_GAIN -6.50 dB
REM REPLAYGAIN_ALBUM_PEAK 0.967529
FILE “201 Led Zeppelin – Moby Dick.flac” WAVE
TRACK 01 AUDIO
TITLE “Moby Dick”
REM REPLAYGAIN_TRACK_GAIN -5.02 dB
REM REPLAYGAIN_TRACK_PEAK 0.967529
INDEX 01 00:00:00
FILE “202 Led Zeppelin – Stairway To Heaven.flac” WAVE
TRACK 02 AUDIO
TITLE “Stairway To Heaven”
REM REPLAYGAIN_TRACK_GAIN -7.20 dB
REM REPLAYGAIN_TRACK_PEAK 0.967529
INDEX 01 00:00:00
FILE “203 Led Zeppelin – Heartbreaker.flac” WAVE
TRACK 03 AUDIO
TITLE “Heartbreaker”
REM REPLAYGAIN_TRACK_GAIN -7.16 dB
REM REPLAYGAIN_TRACK_PEAK 0.967529
INDEX 01 00:00:00
FILE “204 Led Zeppelin – Whole Lotta Love.flac” WAVE
TRACK 04 AUDIO
TITLE “Whole Lotta Love”
REM REPLAYGAIN_TRACK_GAIN -6.61 dB
REM REPLAYGAIN_TRACK_PEAK 0.967529
INDEX 01 00:00:00
FILE “205 Led Zeppelin – The Ocean.flac” WAVE
TRACK 05 AUDIO
TITLE “The Ocean”
REM REPLAYGAIN_TRACK_GAIN -6.16 dB
REM REPLAYGAIN_TRACK_PEAK 0.967529
INDEX 01 00:00:00

TITLE “Quick Diet”
PERFORMER “Led Zeppelin”
REM GENRE “Rock”
REM DATE “1973”
REM DISCNUMBER 1
REM TOTALDISCS 3
REM DISCID 950DD30B
REM REPLAYGAIN_ALBUM_GAIN -4.64 dB
REM REPLAYGAIN_ALBUM_PEAK 0.967529
FILE “101 Led Zeppelin – Introduction.flac” WAVE
TRACK 01 AUDIO
TITLE “Introduction”
REM REPLAYGAIN_TRACK_GAIN 9.10 dB
REM REPLAYGAIN_TRACK_PEAK 0.871735
INDEX 01 00:00:00
FILE “102 Led Zeppelin – Rock and Roll.flac” WAVE
TRACK 02 AUDIO
TITLE “Rock and Roll”
REM REPLAYGAIN_TRACK_GAIN -4.26 dB
REM REPLAYGAIN_TRACK_PEAK 0.954163
INDEX 01 00:00:00
FILE “103 Led Zeppelin – Celebration Day.flac” WAVE
TRACK 03 AUDIO
TITLE “Celebration Day”
REM REPLAYGAIN_TRACK_GAIN -4.75 dB
REM REPLAYGAIN_TRACK_PEAK 0.914093
INDEX 01 00:00:00
FILE “104 Led Zeppelin – Black Dog.flac” WAVE
TRACK 04 AUDIO
TITLE “Black Dog”
REM REPLAYGAIN_TRACK_GAIN -4.75 dB
REM REPLAYGAIN_TRACK_PEAK 0.967529
INDEX 01 00:00:00
FILE “105 Led Zeppelin – Over The Hills and Far Away.flac” WAVE
TRACK 05 AUDIO
TITLE “Over The Hills and Far Away”
REM REPLAYGAIN_TRACK_GAIN -4.29 dB
REM REPLAYGAIN_TRACK_PEAK 0.937988
INDEX 01 00:00:00
FILE “106 Led Zeppelin – Misty Mountain Hop.flac” WAVE
TRACK 06 AUDIO
TITLE “Misty Mountain Hop”
REM REPLAYGAIN_TRACK_GAIN -5.61 dB
REM REPLAYGAIN_TRACK_PEAK 0.941650
INDEX 01 00:00:00
FILE “107 Led Zeppelin – Since I’ve Been Loving You.flac” WAVE
TRACK 07 AUDIO
TITLE “Since I’ve Been Loving You”
REM REPLAYGAIN_TRACK_GAIN -4.98 dB
REM REPLAYGAIN_TRACK_PEAK 0.942169
INDEX 01 00:00:00
FILE “108 Led Zeppelin – No Quarter.flac” WAVE
TRACK 08 AUDIO
TITLE “No Quarter”
REM REPLAYGAIN_TRACK_GAIN -4.09 dB
REM REPLAYGAIN_TRACK_PEAK 0.935577
INDEX 01 00:00:00
FILE “109 Led Zeppelin – The Song Remains The Same.flac” WAVE
TRACK 09 AUDIO
TITLE “The Song Remains The Same”
REM REPLAYGAIN_TRACK_GAIN -4.83 dB
REM REPLAYGAIN_TRACK_PEAK 0.928528
INDEX 01 00:00:00
FILE “110 Led Zeppelin – The Rain Song.flac” WAVE
TRACK 10 AUDIO
TITLE “The Rain Song”
REM REPLAYGAIN_TRACK_GAIN -4.07 dB
REM REPLAYGAIN_TRACK_PEAK 0.906006
INDEX 01 00:00:00
FILE “111 Led Zeppelin – Dazed And Confused.flac” WAVE
TRACK 11 AUDIO
TITLE “Dazed And Confused”
REM REPLAYGAIN_TRACK_GAIN -1.43 dB
REM REPLAYGAIN_TRACK_PEAK 0.851807
INDEX 01 00:00:00

Leave a Reply

Your email address will not be published. Required fields are marked *

This site uses Akismet to reduce spam. Learn how your comment data is processed.