Led Zeppelin – Presence (Remastered)




Artist: Led Zeppelin
Year: 1976/1993
Genre: Rock
Notes: Discogs
Add. Notes: Remastered
Cover incl.: Yes
Encoder: FLAC
Bitrate: ~900 kBit/s (44.1 kHz/16 Bit/s)
Log & Cue incl.: Yes
Size: 496 MB
Password: “slam” (without ” “)


All Downloads/Hosters are compatible

Download 1
KatFile.com
Turbobit.net
Rapidgator.net
Download 2
KatFile.com
Turbobit.net
Rapidgator.net

Tracklist:

1 - Achilles Last Stand - 10:22
2 - For Your Life - 6:20
3 - Royal Orleans - 2:58
4 - Nobody's Fault But Mine - 6:27
5 - Candy Store Rock - 4:07
6 - Hots On For Nowhere - 4:43
7 - Tea For One - 9:27

EAC-Log, CUE-Sheed & NFO:

Click to open spoiler
REM GENRE “Classic Rock”
REM DATE 1976
REM DISCID 4D0A6C07
REM COMMENT “ExactAudioCopy v1.0b3”
PERFORMER “Led Zeppelin”
TITLE “Presence”
FILE “Presence.flac” WAVE
TRACK 01 AUDIO
TITLE “Achilles Last Stand”
PERFORMER “Led Zeppelin”
INDEX 00 00:00:00
INDEX 01 00:00:32
TRACK 02 AUDIO
TITLE “For Your Life”
PERFORMER “Led Zeppelin”
INDEX 00 10:22:44
INDEX 01 10:25:65
TRACK 03 AUDIO
TITLE “Royal Orleans”
PERFORMER “Led Zeppelin”
INDEX 00 16:47:14
INDEX 01 16:50:12
TRACK 04 AUDIO
TITLE “Nobody’s Fault But Mine”
PERFORMER “Led Zeppelin”
INDEX 00 19:48:37
INDEX 01 19:49:60
TRACK 05 AUDIO
TITLE “Candy Store Rock”
PERFORMER “Led Zeppelin”
INDEX 00 26:05:59
INDEX 01 26:05:60
TRACK 06 AUDIO
TITLE “Hots On For Nowhere”
PERFORMER “Led Zeppelin”
INDEX 00 30:15:04
INDEX 01 30:17:40
TRACK 07 AUDIO
TITLE “Tea For One”
PERFORMER “Led Zeppelin”
INDEX 00 35:00:47
INDEX 01 35:01:65

Exact Audio Copy V1.0 beta 3 from 29. August 2011

EAC extraction logfile from 5. December 2013, 21:18

Led Zeppelin / Presence

Used drive : PLEXTOR DVDR PX-L890SA Adapter: 1 ID: 0

Read mode : Secure
Utilize accurate stream : Yes
Defeat audio cache : Yes
Make use of C2 pointers : No

Read offset correction : 6
Overread into Lead-In and Lead-Out : No
Fill up missing offset samples with silence : Yes
Delete leading and trailing silent blocks : No
Null samples used in CRC calculations : Yes
Used interface : Native Win32 interface for Win NT & 2000

Used output format : User Defined Encoder
Selected bitrate : 768 kBit/s
Quality : High
Add ID3 tag : No
Command line compressor : G:\Program Files\Exact Audio Copy\FLAC\FLAC.EXE
Additional command line options : -V -8 -T “Date=%year%” -T “Genre=%genre%” %source%

TOC of the extracted CD

Track | Start | Length | Start sector | End sector
———————————————————
1 | 0:00.32 | 10:25.33 | 32 | 46939
2 | 10:25.65 | 6:24.22 | 46940 | 75761
3 | 16:50.12 | 2:59.48 | 75762 | 89234
4 | 19:49.60 | 6:16.00 | 89235 | 117434
5 | 26:05.60 | 4:11.55 | 117435 | 136314
6 | 30:17.40 | 4:44.25 | 136315 | 157639
7 | 35:01.65 | 9:26.45 | 157640 | 200134

Range status and errors

Selected range

Filename H:\MUSIC\Complete Studio Record (USA)\1976. Presence\Presence.wav

Peak level 100.0 %
Extraction speed 6.0 X
Range quality 100.0 %
Test CRC 6009EA1B
Copy CRC 6009EA1B
Copy OK

No errors occurred

AccurateRip summary

Track 1 accurately ripped (confidence 73) [F5679EBE] (AR v2)
Track 2 accurately ripped (confidence 74) [D05BF88A] (AR v2)
Track 3 accurately ripped (confidence 72) [7662E45E] (AR v2)
Track 4 accurately ripped (confidence 72) [D1B5BC01] (AR v2)
Track 5 accurately ripped (confidence 66) [B5D6E7A5] (AR v2)
Track 6 accurately ripped (confidence 73) [015B96A7] (AR v2)
Track 7 accurately ripped (confidence 74) [A766BBA8] (AR v2)

All tracks accurately ripped

End of status report

—- CUETools DB Plugin V2.1.3

[CTDB TOCID: 1898aHn1J1m0n5d2Rij84akCjNs-] found, Submit result: discs with pregaps not supported in this protocol version
[854082b2] (311/318) Differs in 0 samples @
[0bd955ab] (002/318) No match
[f068b959] (001/318) No match
[99dd7b77] (001/318) No match
[a9d4f4d8] (001/318) No match
[d3f21d4a] (001/318) No match
[550a984c] (001/318) No match
You can use CUETools to repair this rip.

==== Log checksum 43DFFD575E8CA0FF2BFEA81C65D0799FDDC0E3585865FE02FE24C762FC826D7F ====


Leave a Reply

Your email address will not be published. Required fields are marked *

This site uses Akismet to reduce spam. Learn how your comment data is processed.