Led Zeppelin – Presence (Remastered Japanese Edition)




No Cover available

Artist: Led Zeppelin
Year: 1976/2012
Genre: Rock
Notes: Discogs
Add. Notes: Remastered Japanese Edition
Watch Songs on: YouTube
Cover incl.: Yes
Encoder: FLAC
Bitrate: ~1000 kBit/s (44.1 kHz/16 Bit/s)
Log & Cue incl.: Yes/Yes
Size: 552,8 MB
Password: “slam” (without ” “)


All Downloads/Hosters are compatible

Download 1
KatFile.com
Turbobit.net
Rapidgator.net
FileFactory.com
Download 2
KatFile.com
Turbobit.net
Rapidgator.net
FileFactory.com

Tracklist:

1 Achilles Last Stand 
2 For Your Life 
3 Royal Orleans 
4 Nobody's Fault But Mine 
5 Candy Store Rock 
6 Hots On For Nowhere 
7 Tea For One

EAC-Log, CUE-Sheed & NFO:

Click to open spoiler
Exact Audio Copy V1.0 beta 3 from 29. August 2011

EAC extraction logfile from 15. December 2012, 14:23

Led Zeppelin / Presence

Used drive : MATSHITADVD-RAM UJ-850S Adapter: 1 ID: 0

Read mode : Secure
Utilize accurate stream : Yes
Defeat audio cache : Yes
Make use of C2 pointers : No

Read offset correction : 102
Overread into Lead-In and Lead-Out : No
Fill up missing offset samples with silence : Yes
Delete leading and trailing silent blocks : No
Null samples used in CRC calculations : Yes
Used interface : Native Win32 interface for Win NT & 2000

Used output format : User Defined Encoder
Selected bitrate : 128 kBit/s
Quality : High
Add ID3 tag : No
Command line compressor : C:\Program Files\Exact Audio Copy\Flac\flac.exe
Additional command line options : -V -8 -T “Date=%year%” -T “Genre=%genre%” %source%

TOC of the extracted CD

Track | Start | Length | Start sector | End sector
———————————————————
1 | 0:00.00 | 10:25.32 | 0 | 46906
2 | 10:25.32 | 6:24.18 | 46907 | 75724
3 | 16:49.50 | 2:59.17 | 75725 | 89166
4 | 19:48.67 | 6:16.60 | 89167 | 117426
5 | 26:05.52 | 4:11.45 | 117427 | 136296
6 | 30:17.22 | 4:44.13 | 136297 | 157609
7 | 35:01.35 | 9:27.02 | 157610 | 200136

Range status and errors

Selected range

Filename C:\Users\ALIK\Desktop\music\2012. 10 LIMITED CELEBRATION DAY VERSION CD SET-JAPAN CD AP50\Led Zeppelin – Presence\Led Zeppelin – Presence.wav

Peak level 100.0 %
Extraction speed 2.3 X
Range quality 100.0 %
Test CRC 0D661204
Copy CRC 0D661204
Copy OK

No errors occurred

AccurateRip summary

Track 1 accurately ripped (confidence 12) [2F382082] (AR v2)
Track 2 accurately ripped (confidence 12) [0412D89D] (AR v2)
Track 3 accurately ripped (confidence 12) [2DE6653A] (AR v2)
Track 4 accurately ripped (confidence 12) [A11A2223] (AR v2)
Track 5 accurately ripped (confidence 12) [75FF7177] (AR v2)
Track 6 accurately ripped (confidence 12) [32CFE857] (AR v2)
Track 7 accurately ripped (confidence 12) [64717AD4] (AR v2)

All tracks accurately ripped

End of status report

—- CUETools DB Plugin V2.1.3

[CTDB TOCID: RZwywztvLWbGcvZlV.Z09ZoMYSc-] found, Submit result: RZwywztvLWbGcvZlV.Z09ZoMYSc- has been confirmed
[51b572e0] (24/73) No match
[59f2d43f] (47/73) Accurately ripped
[f2adf69f] (01/73) No match
[c00e11d6] (01/73) No match

==== Log checksum 8987290494E51657A8B6327B1BC28F45F55AB8C387E93A6616BF057A62EE678E ====

REM GENRE “Hard Rock”
REM DATE 1976
REM DISCID 4B0A6C07
REM COMMENT “ExactAudioCopy v1.0b3”
CATALOG 4943674055852
PERFORMER “Led Zeppelin”
TITLE “Presence ”
FILE “Led Zeppelin – Presence.flac” WAVE
TRACK 01 AUDIO
TITLE “Achilles Last Stand”
PERFORMER “Led Zeppelin”
ISRC USAT29900625
INDEX 01 00:00:00
TRACK 02 AUDIO
TITLE “For Your Life”
PERFORMER “Led Zeppelin”
ISRC USAT29900623
INDEX 00 10:22:60
INDEX 01 10:25:32
TRACK 03 AUDIO
TITLE “Royal Orleans”
PERFORMER “Led Zeppelin”
ISRC USAT20000608
INDEX 00 16:47:52
INDEX 01 16:49:50
TRACK 04 AUDIO
TITLE “Nobody’s Fault But Mine”
PERFORMER “Led Zeppelin”
ISRC USAT29900634
INDEX 00 19:48:30
INDEX 01 19:48:67
TRACK 05 AUDIO
TITLE “Candy Store Rock”
PERFORMER “Led Zeppelin”
ISRC USAT29900629
INDEX 01 26:05:52
TRACK 06 AUDIO
TITLE “Hots On For Nowhere”
PERFORMER “Led Zeppelin”
ISRC USAT20000606
INDEX 00 30:14:57
INDEX 01 30:17:22
TRACK 07 AUDIO
TITLE “Tea For One”
PERFORMER “Led Zeppelin”
ISRC USAT20000612
INDEX 01 35:01:35


0

Publication author

offline 7 days

Chaos

3
Comments: 4Publics: 3565Registration: 02-02-2019
Spread the Download

Leave a Reply

Your email address will not be published. Required fields are marked *

Enter the text from the image below
 

This site uses Akismet to reduce spam. Learn how your comment data is processed.