Led Zeppelin – Presence (Reissue)




[Total: 0    Average: 0/5]

Artist: Led Zeppelin
Year: 1976/1987
Genre: Rock
Notes: Discogs
Add. Notes: Reissue
Cover incl.: Yes
Encoder: FLAC
Bitrate: ~900 kBit/s (44.1 kHz/16 Bit/s)
Log & Cue incl.: Yes
Size: 358,3 MB
Password: “slam” (without ” “)


All Downloads/Hosters are compatible

Download 1
KatFile.com
Turbobit.net
FileFactory.com
Rapidgator.net
Download 2
KatFile.com
Turbobit.net
FileFactory.com
Rapidgator.net
Download 3
KatFile.com
Turbobit.net
FileFactory.com
Rapidgator.net

Tracklist:

1 Achilles Last Stand 10:26
2 For Your Life 6:21
3 Royal Orleans 2:58
4 Nobody's Fault But Mine 6:15
5 Candy Store Rock 4:10
6 Hots On For Nowhere 4:42
7 Tea For One 9:27

EAC-Log, CUE-Sheed & NFO:

Click to open spoiler
Exact Audio Copy V1.0 beta 3 from 29. August 2011

EAC extraction logfile from 18. November 2013, 20:28

Led Zeppelin / Presence

Used drive : PLEXTOR DVDR PX-L890SA Adapter: 1 ID: 0

Read mode : Secure
Utilize accurate stream : Yes
Defeat audio cache : Yes
Make use of C2 pointers : No

Read offset correction : 6
Overread into Lead-In and Lead-Out : No
Fill up missing offset samples with silence : Yes
Delete leading and trailing silent blocks : No
Null samples used in CRC calculations : Yes
Used interface : Native Win32 interface for Win NT & 2000

Used output format : User Defined Encoder
Selected bitrate : 768 kBit/s
Quality : High
Add ID3 tag : No
Command line compressor : G:\Program Files\Exact Audio Copy\FLAC\FLAC.EXE
Additional command line options : -V -8 -T “Date=%year%” -T “Genre=%genre%” %source%

TOC of the extracted CD

Track | Start | Length | Start sector | End sector
———————————————————
1 | 0:01.00 | 10:27.60 | 75 | 47159
2 | 10:28.60 | 6:24.05 | 47160 | 75964
3 | 16:52.65 | 2:59.10 | 75965 | 89399
4 | 19:52.00 | 6:13.65 | 89400 | 117439
5 | 26:05.65 | 4:11.05 | 117440 | 136269
6 | 30:16.70 | 4:42.02 | 136270 | 157421
7 | 34:58.72 | 9:22.55 | 157422 | 199626

Range status and errors

Selected range

Filename H:\MUSIC\1976. Led Zeppelin – Presence (Swan Song 259 402, Germany)\Led Zeppelin – Presence.wav

Peak level 100.0 %
Extraction speed 5.3 X
Range quality 99.9 %
Test CRC FC6A9011
Copy CRC FC6A9011
Copy OK

No errors occurred

AccurateRip summary

Track 1 accurately ripped (confidence 30) [05419E4E] (AR v2)
Track 2 accurately ripped (confidence 31) [DB722742] (AR v2)
Track 3 accurately ripped (confidence 32) [35AE2B50] (AR v2)
Track 4 accurately ripped (confidence 31) [7DDAE684] (AR v2)
Track 5 accurately ripped (confidence 32) [439AABE5] (AR v2)
Track 6 accurately ripped (confidence 33) [B105F83B] (AR v2)
Track 7 accurately ripped (confidence 31) [BD5D1728] (AR v2)

All tracks accurately ripped

End of status report

—- CUETools DB Plugin V2.1.3

[CTDB TOCID: XAR9xS.5e_wL.jDm63cM7EyR.ns-] found, Submit result: discs with pregaps not supported in this protocol version
[6227618f] (107/107) Differs in 8412 samples @00:00:74-00:01:09
You can use CUETools to repair this rip.

==== Log checksum 0451AEDCCA70FDA820FE462C8BE27FE62C6B077CAD5EF0DEAD90F0F4B0284B38 ====

REM GENRE “Classic Rock”
REM DATE 1976
REM DISCID 490A6407
REM COMMENT “ExactAudioCopy v1.0b3”
PERFORMER “Led Zeppelin”
TITLE “Presence”
FILE “Led Zeppelin – Presence.flac” WAVE
TRACK 01 AUDIO
TITLE “Achilles Last Stand”
PERFORMER “Led Zeppelin”
INDEX 00 00:00:00
INDEX 01 00:01:00
TRACK 02 AUDIO
TITLE “For Your Life”
PERFORMER “Led Zeppelin”
INDEX 00 10:28:59
INDEX 01 10:28:60
TRACK 03 AUDIO
TITLE “Royal Orleans”
PERFORMER “Led Zeppelin”
INDEX 00 16:51:04
INDEX 01 16:52:65
TRACK 04 AUDIO
TITLE “Nobody’s Fault But Mine”
PERFORMER “Led Zeppelin”
INDEX 00 19:49:64
INDEX 01 19:52:00
TRACK 05 AUDIO
TITLE “Candy Store Rock”
PERFORMER “Led Zeppelin”
INDEX 00 26:05:16
INDEX 01 26:05:65
TRACK 06 AUDIO
TITLE “Hots On For Nowhere”
PERFORMER “Led Zeppelin”
INDEX 00 30:12:31
INDEX 01 30:16:70
TRACK 07 AUDIO
TITLE “Tea For One”
PERFORMER “Led Zeppelin”
INDEX 00 34:57:26
INDEX 01 34:58:72


Spread the Download

Leave a Reply

Your email address will not be published. Required fields are marked *

Enter the text from the image below
 

This site uses Akismet to reduce spam. Learn how your comment data is processed.