Led Zeppelin – Physical Graffiti




No Cover available

Artist: Led Zeppelin
Year: 1975/1987
Genre: Rock
Notes: Discogs
Add. Notes:
Watch Songs on: YouTube
Cover incl.: Yes
Encoder: FLAC
Bitrate: ~800 kBit/s (44.1 kHz/16 Bit/s)
Log & Cue incl.: Yes/Yes
Size: 630,6 MB
Password: “slam” (without ” “)


All Downloads/Hosters are compatible

Download 1
KatFile.com
Turbobit.net
Rapidgator.net
FileFactory.com
Download 2
KatFile.com
Turbobit.net
Rapidgator.net
FileFactory.com

Tracklist:

CD 1
1 Custard Pie 4:20
2 The Rover 5:44
3 In My Time Of Dying 11:08
4 Houses Of The Holy 4:01
5 Trampled Under Foot 5:38
6 Kashmir 9:41

CD 2
1 In The Light 8:46
2 Bron-Yr-Aur 2:07
3 Down By The Seaside 5:15
4 Ten Years Gone 6:55
5 Night Flight 3:37
6 The Wanton Song 4:10
7 Boogie With Stu 3:45
8 Black Country Woman 4:30
9 Sick Again 4:40

EAC-Log, CUE-Sheed & NFO:

Click to open spoiler
Exact Audio Copy V1.0 beta 3 from 29. August 2011

EAC extraction logfile from 18. November 2013, 19:21

Led Zeppelin / Physical Graffiti [CD1]

Used drive : PLEXTOR DVDR PX-L890SA Adapter: 1 ID: 0

Read mode : Secure
Utilize accurate stream : Yes
Defeat audio cache : Yes
Make use of C2 pointers : No

Read offset correction : 6
Overread into Lead-In and Lead-Out : No
Fill up missing offset samples with silence : Yes
Delete leading and trailing silent blocks : No
Null samples used in CRC calculations : Yes
Used interface : Native Win32 interface for Win NT & 2000

Used output format : User Defined Encoder
Selected bitrate : 768 kBit/s
Quality : High
Add ID3 tag : No
Command line compressor : G:\Program Files\Exact Audio Copy\FLAC\FLAC.EXE
Additional command line options : -V -8 -T “Date=%year%” -T “Genre=%genre%” %source%

TOC of the extracted CD

Track | Start | Length | Start sector | End sector
———————————————————
1 | 0:00.37 | 4:16.25 | 37 | 19261
2 | 4:16.62 | 5:38.55 | 19262 | 44666
3 | 9:55.42 | 11:04.28 | 44667 | 94494
4 | 20:59.70 | 4:04.02 | 94495 | 112796
5 | 25:03.72 | 5:38.33 | 112797 | 138179
6 | 30:42.30 | 8:32.72 | 138180 | 176651

Range status and errors

Selected range

Filename H:\MUSIC\1975. Led Zeppelin – Physical Graffiti (Swan Song SS 200-2, USA)\disc1\Led Zeppelin – Physical Graffiti [CD1].wav

Peak level 100.0 %
Extraction speed 5.7 X
Range quality 100.0 %
Test CRC 08A5D9A8
Copy CRC 08A5D9A8
Copy OK

No errors occurred

AccurateRip summary

Track 1 accurately ripped (confidence 11) [BF4CA5D5] (AR v2)
Track 2 accurately ripped (confidence 11) [D1361827] (AR v2)
Track 3 accurately ripped (confidence 11) [71BADC0D] (AR v2)
Track 4 accurately ripped (confidence 11) [B750CBDA] (AR v2)
Track 5 accurately ripped (confidence 11) [7312C26E] (AR v2)
Track 6 accurately ripped (confidence 11) [4D789BB0] (AR v2)

All tracks accurately ripped

End of status report

—- CUETools DB Plugin V2.1.3

[CTDB TOCID: iKTc0nAUZgDmJRHn6mQmynt8N24-] found, Submit result: discs with pregaps not supported in this protocol version
[dd854ed8] (34/34) Differs in 0 samples @
You can use CUETools to repair this rip.

==== Log checksum 34D0AA199B42A0553C89F7F96220013C00B12513CF736349F955E3B261473F13 ====

Exact Audio Copy V1.0 beta 3 from 29. August 2011

EAC extraction logfile from 18. November 2013, 19:36

Led Zeppelin / Physical Graffiti (CD2)

Used drive : PLEXTOR DVDR PX-L890SA Adapter: 1 ID: 0

Read mode : Secure
Utilize accurate stream : Yes
Defeat audio cache : Yes
Make use of C2 pointers : No

Read offset correction : 6
Overread into Lead-In and Lead-Out : No
Fill up missing offset samples with silence : Yes
Delete leading and trailing silent blocks : No
Null samples used in CRC calculations : Yes
Used interface : Native Win32 interface for Win NT & 2000

Used output format : User Defined Encoder
Selected bitrate : 768 kBit/s
Quality : High
Add ID3 tag : No
Command line compressor : G:\Program Files\Exact Audio Copy\FLAC\FLAC.EXE
Additional command line options : -V -8 -T “Date=%year%” -T “Genre=%genre%” %source%

TOC of the extracted CD

Track | Start | Length | Start sector | End sector
———————————————————
1 | 0:00.37 | 8:50.73 | 37 | 39859
2 | 8:51.35 | 2:06.30 | 39860 | 49339
3 | 10:57.65 | 5:16.50 | 49340 | 73089
4 | 16:14.40 | 6:34.60 | 73090 | 102699
5 | 22:49.25 | 3:38.00 | 102700 | 119049
6 | 26:27.25 | 4:09.55 | 119050 | 137779
7 | 30:37.05 | 3:53.02 | 137780 | 155256
8 | 34:30.07 | 4:32.43 | 155257 | 175699
9 | 39:02.50 | 4:43.62 | 175700 | 196986

Range status and errors

Selected range

Filename H:\MUSIC\1975. Led Zeppelin – Physical Graffiti (Swan Song SS 200-2, USA)\disc2\Led Zeppelin – Physical Graffiti (CD2).wav

Peak level 94.4 %
Extraction speed 5.9 X
Range quality 100.0 %
Test CRC 5D44990C
Copy CRC 5D44990C
Copy OK

No errors occurred

AccurateRip summary

Track 1 accurately ripped (confidence 14) [78D54317] (AR v2)
Track 2 accurately ripped (confidence 14) [8DD7E2B1] (AR v2)
Track 3 accurately ripped (confidence 14) [DED3713E] (AR v2)
Track 4 accurately ripped (confidence 14) [DAEC923B] (AR v2)
Track 5 accurately ripped (confidence 14) [E1DC64A8] (AR v2)
Track 6 accurately ripped (confidence 14) [BFC89714] (AR v2)
Track 7 accurately ripped (confidence 14) [3AC74E73] (AR v2)
Track 8 accurately ripped (confidence 14) [0ED9FC19] (AR v2)
Track 9 accurately ripped (confidence 14) [FF80552A] (AR v2)

All tracks accurately ripped

End of status report

—- CUETools DB Plugin V2.1.3

[CTDB TOCID: lDBEiwmujzYK8KwbuFbqdGw85xg-] found, Submit result: discs with pregaps not supported in this protocol version
[8b7852fb] (67/67) Differs in 0 samples @
You can use CUETools to repair this rip.

==== Log checksum 24BBAC9B49579F324A90A233D9312471D232949E1DFFF9A5725742FEC5B15E78 ====

REM GENRE “Hard Blues-Rock”
REM DATE 1975
REM DISCID 4C093306
REM COMMENT “ExactAudioCopy v1.0b3”
PERFORMER “Led Zeppelin”
TITLE “Physical Graffiti [CD1]”
FILE “Led Zeppelin – Physical Graffiti [CD1].flac” WAVE
TRACK 01 AUDIO
TITLE “Custard Pie”
PERFORMER “Led Zeppelin”
INDEX 00 00:00:00
INDEX 01 00:00:37
TRACK 02 AUDIO
TITLE “The Rover”
PERFORMER “Led Zeppelin”
INDEX 00 04:14:64
INDEX 01 04:16:62
TRACK 03 AUDIO
TITLE “In My Time of Dying”
PERFORMER “Led Zeppelin”
INDEX 00 09:54:27
INDEX 01 09:55:42
TRACK 04 AUDIO
TITLE “Houses of the Holy”
PERFORMER “Led Zeppelin”
INDEX 00 20:59:34
INDEX 01 20:59:70
TRACK 05 AUDIO
TITLE “Trampled under Foot”
PERFORMER “Led Zeppelin”
INDEX 00 25:03:02
INDEX 01 25:03:72
TRACK 06 AUDIO
TITLE “Kashmir”
PERFORMER “Led Zeppelin”
INDEX 00 30:42:04
INDEX 01 30:42:30

REM GENRE Rock
REM DATE 1975
REM DISCID 870A4209
REM COMMENT “ExactAudioCopy v1.0b3”
PERFORMER “Led Zeppelin”
TITLE “Physical Graffiti (CD2)”
FILE “Led Zeppelin – Physical Graffiti (CD2).flac” WAVE
TRACK 01 AUDIO
TITLE “In the Light”
PERFORMER “Led Zeppelin”
INDEX 00 00:00:00
INDEX 01 00:00:37
TRACK 02 AUDIO
TITLE “Bron-Yr-Aur”
PERFORMER “Led Zeppelin”
INDEX 00 08:51:12
INDEX 01 08:51:35
TRACK 03 AUDIO
TITLE “Down by the Seaside”
PERFORMER “Led Zeppelin”
INDEX 00 10:57:64
INDEX 01 10:57:65
TRACK 04 AUDIO
TITLE “Ten Years Gone”
PERFORMER “Led Zeppelin”
INDEX 00 16:12:49
INDEX 01 16:14:40
TRACK 05 AUDIO
TITLE “Night Flight”
PERFORMER “Led Zeppelin”
INDEX 00 22:47:37
INDEX 01 22:49:25
TRACK 06 AUDIO
TITLE “The Wanton Song”
PERFORMER “Led Zeppelin”
INDEX 00 26:27:24
INDEX 01 26:27:25
TRACK 07 AUDIO
TITLE “Boogie With Stu”
PERFORMER “Led Zeppelin”
INDEX 00 30:34:39
INDEX 01 30:37:05
TRACK 08 AUDIO
TITLE “Black Country Woman”
PERFORMER “Led Zeppelin”
INDEX 00 34:28:37
INDEX 01 34:30:07
TRACK 09 AUDIO
TITLE “Sick Again”
PERFORMER “Led Zeppelin”
INDEX 00 38:57:22
INDEX 01 39:02:50


Leave a Reply

Your email address will not be published. Required fields are marked *

Enter the text from the image below
 

This site uses Akismet to reduce spam. Learn how your comment data is processed.