Led Zeppelin – Physical Graffiti (Remastered)




Artist: Led Zeppelin
Year: 1975/1993
Genre: Rock
Notes: Discogs
Add. Notes: Remastered
Cover incl.: Yes
Encoder: FLAC
Bitrate: ~900 kBit/s (44.1 kHz/16 Bit/s)
Log & Cue incl.: Yes
Size: 839 MB
Password: “slam” (without ” “)


All Downloads/Hosters are compatible

Download 1
KatFile.com
Turbobit.net
Rapidgator.net
Download 2
KatFile.com
Turbobit.net
Rapidgator.net

Tracklist:

Disc One
1 - Custard Pie - 4:13
2 - The Rover - 5:36
3 - In My Time Of Dying - 11:04
4 - Houses Of The Holy - 4:01
5 - Trampled Under Foot - 5:35
6 - Kashmir - 8:31

Disc Two
1 - In The Light - 8:44
2 - Bron-Yr-Aur - 2:06
3 - Down By The Seaside - 5:14
4 - Ten Years Gone - 6:31
5 - Night Flight - 3:36
6 - The Wanton Song - 4:06
7 - Boogie With Stu - 3:51
8 - Black Country Woman - 4:24
9 - Sick Again - 4:43

EAC-Log, CUE-Sheed & NFO:

Click to open spoiler
Exact Audio Copy V1.0 beta 3 from 29. August 2011

EAC extraction logfile from 6. December 2013, 19:10

Led Zeppelin / Physical Graffiti (Disc 1)

Used drive : PLEXTOR DVDR PX-L890SA Adapter: 1 ID: 0

Read mode : Secure
Utilize accurate stream : Yes
Defeat audio cache : Yes
Make use of C2 pointers : No

Read offset correction : 6
Overread into Lead-In and Lead-Out : No
Fill up missing offset samples with silence : Yes
Delete leading and trailing silent blocks : No
Null samples used in CRC calculations : Yes
Used interface : Native Win32 interface for Win NT & 2000

Used output format : User Defined Encoder
Selected bitrate : 768 kBit/s
Quality : High
Add ID3 tag : No
Command line compressor : G:\Program Files\Exact Audio Copy\FLAC\FLAC.EXE
Additional command line options : -V -8 -T “Date=%year%” -T “Genre=%genre%” %source%

TOC of the extracted CD

Track | Start | Length | Start sector | End sector
———————————————————
1 | 0:00.32 | 4:13.50 | 32 | 19056
2 | 4:14.07 | 5:37.05 | 19057 | 44336
3 | 9:51.12 | 11:06.00 | 44337 | 94286
4 | 20:57.12 | 4:02.25 | 94287 | 112461
5 | 24:59.37 | 5:36.40 | 112462 | 137701
6 | 30:36.02 | 8:28.40 | 137702 | 175841

Range status and errors

Selected range

Filename H:\MUSIC\Complete Studio Record (USA)\1975. Physical Graffiti\Physical Graffiti (Disc 1).wav

Peak level 100.0 %
Extraction speed 5.7 X
Range quality 99.9 %
Test CRC A9317DD9
Copy CRC A9317DD9
Copy OK

No errors occurred

AccurateRip summary

Track 1 accurately ripped (confidence 74) [E5F9BE86] (AR v2)
Track 2 accurately ripped (confidence 76) [71A65BFF] (AR v2)
Track 3 accurately ripped (confidence 73) [1A8F4F9D] (AR v2)
Track 4 accurately ripped (confidence 74) [29EFA271] (AR v2)
Track 5 accurately ripped (confidence 76) [9F5798DF] (AR v2)
Track 6 accurately ripped (confidence 72) [C635011F] (AR v2)

All tracks accurately ripped

End of status report

—- CUETools DB Plugin V2.1.3

[CTDB TOCID: HaEEN4ORRPgRsvoI_57ZrSKw3_A-] found, Submit result: discs with pregaps not supported in this protocol version
[9a605684] (312/314) Differs in 13540 samples @00:00:30-00:00:41
[17d70cd1] (002/314) No match
You can use CUETools to repair this rip.

==== Log checksum F7EC9A90D2FF98FAB35FA36EA87BC7A74C3AD2585D6B6DCD55C849192A111EA9 ====

Exact Audio Copy V1.0 beta 3 from 29. August 2011

EAC extraction logfile from 6. December 2013, 19:47

LED ZEPPELIN / Physical Graffiti (Disc Two)

Used drive : PLEXTOR DVDR PX-L890SA Adapter: 1 ID: 0

Read mode : Secure
Utilize accurate stream : Yes
Defeat audio cache : Yes
Make use of C2 pointers : No

Read offset correction : 6
Overread into Lead-In and Lead-Out : No
Fill up missing offset samples with silence : Yes
Delete leading and trailing silent blocks : No
Null samples used in CRC calculations : Yes
Used interface : Native Win32 interface for Win NT & 2000

Used output format : User Defined Encoder
Selected bitrate : 768 kBit/s
Quality : High
Add ID3 tag : No
Command line compressor : G:\Program Files\Exact Audio Copy\FLAC\FLAC.EXE
Additional command line options : -V -8 -T “Date=%year%” -T “Genre=%genre%” %source%

TOC of the extracted CD

Track | Start | Length | Start sector | End sector
———————————————————
1 | 0:00.32 | 8:46.63 | 32 | 39544
2 | 8:47.20 | 2:06.47 | 39545 | 49041
3 | 10:53.67 | 5:16.03 | 49042 | 72744
4 | 16:09.70 | 6:33.02 | 72745 | 102221
5 | 22:42.72 | 3:37.33 | 102222 | 118529
6 | 26:20.30 | 4:09.62 | 118530 | 137266
7 | 30:30.17 | 3:53.13 | 137267 | 154754
8 | 34:23.30 | 4:32.70 | 154755 | 175224
9 | 38:56.25 | 4:43.07 | 175225 | 196456

Range status and errors

Selected range

Filename H:\MUSIC\Complete Studio Record (USA)\1975. Physical Graffiti\Physical Graffiti (Disc 2).wav

Peak level 100.0 %
Extraction speed 5.9 X
Range quality 100.0 %
Test CRC BA6E9C2A
Copy CRC BA6E9C2A
Copy OK

No errors occurred

AccurateRip summary

Track 1 accurately ripped (confidence 73) [F0F2BB5C] (AR v2)
Track 2 accurately ripped (confidence 73) [618B8F04] (AR v2)
Track 3 accurately ripped (confidence 72) [68AA4030] (AR v2)
Track 4 accurately ripped (confidence 73) [2F2872FB] (AR v2)
Track 5 accurately ripped (confidence 73) [F173E5D4] (AR v2)
Track 6 accurately ripped (confidence 73) [80192E7B] (AR v2)
Track 7 accurately ripped (confidence 73) [7850CCBF] (AR v2)
Track 8 accurately ripped (confidence 74) [F72AEE31] (AR v2)
Track 9 accurately ripped (confidence 73) [CF29A739] (AR v2)

All tracks accurately ripped

End of status report

—- CUETools DB Plugin V2.1.3

[CTDB TOCID: H5HqReGVC66KhZP27BvkkwLE5zE-] found, Submit result: discs with pregaps not supported in this protocol version
[bfa7dfde] (319/319) Differs in 0 samples @
You can use CUETools to repair this rip.

==== Log checksum 45437CD8FF7F1AE37445ABB34976D982B63C9AB71BB13B1B3683E75960E3F21C ====

REM GENRE “Classic Rock”
REM DATE 1975
REM DISCID 4C092806
REM COMMENT “ExactAudioCopy v1.0b3”
PERFORMER “Led Zeppelin”
TITLE “Physical Graffiti (Disc 1)”
FILE “Physical Graffiti (Disc 1).flac” WAVE
TRACK 01 AUDIO
TITLE “Custard Pie”
PERFORMER “Led Zeppelin”
INDEX 00 00:00:00
INDEX 01 00:00:32
TRACK 02 AUDIO
TITLE “The Rover”
PERFORMER “Led Zeppelin”
INDEX 00 04:13:16
INDEX 01 04:14:07
TRACK 03 AUDIO
TITLE “In My Time of Dying”
PERFORMER “Led Zeppelin”
INDEX 01 09:51:12
TRACK 04 AUDIO
TITLE “Houses of the Holy”
PERFORMER “Led Zeppelin”
INDEX 00 20:56:34
INDEX 01 20:57:12
TRACK 05 AUDIO
TITLE “Trampled Under Foot”
PERFORMER “Led Zeppelin”
INDEX 00 24:59:36
INDEX 01 24:59:37
TRACK 06 AUDIO
TITLE “Kashmir”
PERFORMER “Led Zeppelin”
INDEX 00 30:35:04
INDEX 01 30:36:02

REM GENRE Classic\Rock*
REM DATE 1975
REM DISCID 7C0A3B09
REM COMMENT “ExactAudioCopy v1.0b3”
PERFORMER “LED ZEPPELIN”
TITLE “Physical Graffiti (Disc Two)”
FILE “Physical Graffiti (Disc 2).flac” WAVE
TRACK 01 AUDIO
TITLE “In The Light”
PERFORMER “LED ZEPPELIN”
INDEX 00 00:00:00
INDEX 01 00:00:32
TRACK 02 AUDIO
TITLE “Bron-Yr-Aur”
PERFORMER “LED ZEPPELIN”
INDEX 00 08:45:50
INDEX 01 08:47:20
TRACK 03 AUDIO
TITLE “Down By The Seaside”
PERFORMER “LED ZEPPELIN”
INDEX 01 10:53:67
TRACK 04 AUDIO
TITLE “Ten Years Gone”
PERFORMER “LED ZEPPELIN”
INDEX 00 16:07:48
INDEX 01 16:09:70
TRACK 05 AUDIO
TITLE “Night Flight”
PERFORMER “LED ZEPPELIN”
INDEX 00 22:41:35
INDEX 01 22:42:72
TRACK 06 AUDIO
TITLE “The Wanton Song”
PERFORMER “LED ZEPPELIN”
INDEX 00 26:19:26
INDEX 01 26:20:30
TRACK 07 AUDIO
TITLE “Boogie With Stu”
PERFORMER “LED ZEPPELIN”
INDEX 00 30:27:63
INDEX 01 30:30:17
TRACK 08 AUDIO
TITLE “Black Country Woman”
PERFORMER “LED ZEPPELIN”
INDEX 00 34:22:05
INDEX 01 34:23:30
TRACK 09 AUDIO
TITLE “Sick Again”
PERFORMER “LED ZEPPELIN”
INDEX 00 38:47:63
INDEX 01 38:56:25


Leave a Reply

Your email address will not be published. Required fields are marked *

Enter the text from the image below
 

This site uses Akismet to reduce spam. Learn how your comment data is processed.