Led Zeppelin – Physical Graffiti (Remastered)




No Cover available

Artist: Led Zeppelin
Year: 1975/1995
Genre: Rock
Notes: Discogs
Add. Notes: Remastered
Watch Songs on: YouTube
Cover incl.: Yes
Encoder: FLAC
Bitrate: ~900 kBit/s (44.1 kHz/16 Bit/s)
Log & Cue incl.: Yes/Yes
Size: 717,9 MB
Password: “slam” (without ” “)


All Downloads/Hosters are compatible

Download 1
KatFile.com
Turbobit.net
Rapidgator.net
FileFactory.com
Download 2
KatFile.com
Turbobit.net
Rapidgator.net
FileFactory.com

Tracklist:

CD 1
1 Custard Pie 4:13
2 The Rover 5:36
3 In My Time Of Dying 11:04
4 Houses Of The Holy 4:01
5 Trampled Under Foot 5:35
6 Kashmir 8:31

CD 2
1 In The Light 8:44
2 Bron-yr-aur 2:06
3 Down By The Seaside 5:14
4 Ten Years Gone 6:31
5 Night Flight 3:36
6 The Wanton Song 4:06
7 Boogie With Stu 3:51
8 Black Country Woman 4:24
9 Sick Again 4:43

EAC-Log, CUE-Sheed & NFO:

Click to open spoiler
Exact Audio Copy V0.99 prebeta 5 from 4. May 2009

Отчёт EAC об извлечении, выполненном 18. августа 2009, 10:33

Led Zeppelin / Physical Graffiti – Disc 1

Дисковод: MATSHITADVD-RAM UJ-850S Adapter: 1 ID: 0

Режим чтения : Достоверность
Использование точного потока : Да
Отключение кэша аудио : Да
Использование указателей C2 : Нет

Коррекция смещения при чтении : 102
Способность читать области Lead-in и Lead-out : Нет
Заполнение пропущенных сэмплов тишиной : Да
Удаление блоков с тишиной в начале и конце : Нет
При вычислениях CRC использовались нулевые сэмплы : Да
Интерфейс : Встроенный Win32-интерфейс для Win NT/2000

Выходной формат : Пользовательский кодировщик
Выбранный битрейт : 1024 kBit/s
Качество : Высокий
Добавление ID3-тэга : Нет
Утилита сжатия : C:\Program Files\Exact Audio Copy\Flac\flac.exe
Дополнительные параметры : -8 -V -T “ARTIST=%a” -T “TITLE=%t” -T “ALBUM=%g” -T “DATE=%y” -T “TRACKNUMBER=%n” -T “TOTALTRACKS=%x” -T “GENRE=%m” -T “ALBUM ARTIST=%v” -T “ALBUMARTIST=%v” -T “COMMENT=EAC V0.99 prebeta 5, Secure Mode, AccurateRip, FLAC -8” %s

TOC извлечённого CD

Трек | Старт | Длительность | Начальный сектор | Конечный сектор
———————————————————————
1 | 0:00.00 | 4:13.72 | 0 | 19046
2 | 4:13.72 | 5:37.10 | 19047 | 44331
3 | 9:51.07 | 11:05.73 | 44332 | 94279
4 | 20:57.05 | 4:02.25 | 94280 | 112454
5 | 24:59.30 | 5:36.40 | 112455 | 137694
6 | 30:35.70 | 8:28.35 | 137695 | 175829

Характеристики диапазона извлечения и сообщения об ошибках

Выбранный диапазон

Имя файла C:\Users\ALIK\Desktop\music\Led Zeppelin Physical Graffiti\CD1\Led Zeppelin – Physical Graffiti – Disc 1.wav

Пиковый уровень 100.0 %
Качество диапазона 100.0 %
CRC теста FAC11709
CRC копии FAC11709
Копирование… OK

Ошибок не произошло

AccurateRip: сводка

Трек 1 точное извлечение (доверие 130) [19BD74A6]
Трек 2 точное извлечение (доверие 130) [A2FBDCC5]
Трек 3 точное извлечение (доверие 131) [46E54985]
Трек 4 точное извлечение (доверие 131) [BE6F6221]
Трек 5 точное извлечение (доверие 131) [ABA81D47]
Трек 6 точное извлечение (доверие 126) [51F82849]

Все треки извлечены точно

Конец отчёта

Exact Audio Copy V0.99 prebeta 5 from 4. May 2009

Отчёт EAC об извлечении, выполненном 18. августа 2009, 12:22

Led Zeppelin / Physical Graffiti cd2

Дисковод: MATSHITADVD-RAM UJ-850S Adapter: 1 ID: 0

Режим чтения : Достоверность
Использование точного потока : Да
Отключение кэша аудио : Да
Использование указателей C2 : Нет

Коррекция смещения при чтении : 102
Способность читать области Lead-in и Lead-out : Нет
Заполнение пропущенных сэмплов тишиной : Да
Удаление блоков с тишиной в начале и конце : Нет
При вычислениях CRC использовались нулевые сэмплы : Да
Интерфейс : Встроенный Win32-интерфейс для Win NT/2000

Выходной формат : Пользовательский кодировщик
Выбранный битрейт : 1024 kBit/s
Качество : Высокий
Добавление ID3-тэга : Нет
Утилита сжатия : C:\Program Files\Exact Audio Copy\Flac\flac.exe
Дополнительные параметры : -8 -V -T “ARTIST=%a” -T “TITLE=%t” -T “ALBUM=%g” -T “DATE=%y” -T “TRACKNUMBER=%n” -T “TOTALTRACKS=%x” -T “GENRE=%m” -T “ALBUM ARTIST=%v” -T “ALBUMARTIST=%v” -T “COMMENT=EAC V0.99 prebeta 5, Secure Mode, AccurateRip, FLAC -8” %s

TOC извлечённого CD

Трек | Старт | Длительность | Начальный сектор | Конечный сектор
———————————————————————
1 | 0:00.00 | 8:46.68 | 0 | 39517
2 | 8:46.68 | 2:06.30 | 39518 | 48997
3 | 10:53.23 | 5:15.72 | 48998 | 72694
4 | 16:09.20 | 6:33.23 | 72695 | 102192
5 | 22:42.43 | 3:37.47 | 102193 | 118514
6 | 26:20.15 | 4:09.45 | 118515 | 137234
7 | 30:29.60 | 3:53.13 | 137235 | 154722
8 | 34:22.73 | 4:32.72 | 154723 | 175194
9 | 38:55.70 | 4:42.65 | 175195 | 196409

Характеристики диапазона извлечения и сообщения об ошибках

Выбранный диапазон

Имя файла C:\Users\ALIK\Desktop\music\Led Zeppelin Physical Graffiti\CD2\Led Zeppelin – Physical Graffiti cd2.wav

Пиковый уровень 100.0 %
Качество диапазона 100.0 %
CRC теста A8934C5B
CRC копии A8934C5B
Копирование… OK

Ошибок не произошло

AccurateRip: сводка

Трек 1 точное извлечение (доверие 117) [73B3B218]
Трек 2 точное извлечение (доверие 119) [26AE16BE]
Трек 3 точное извлечение (доверие 118) [B2C1F712]
Трек 4 точное извлечение (доверие 120) [02D64ED9]
Трек 5 точное извлечение (доверие 118) [36F6D7AB]
Трек 6 точное извлечение (доверие 119) [8F00C9E5]
Трек 7 точное извлечение (доверие 118) [0D53BE76]
Трек 8 точное извлечение (доверие 118) [9676A9DE]
Трек 9 точное извлечение (доверие 111) [1BE2660D]

Все треки извлечены точно

Конец отчёта

REM GENRE Rock
REM DATE 1975
REM DISCID 4A092806
REM COMMENT “ExactAudioCopy v0.99pb5”
PERFORMER “Led Zeppelin”
TITLE “Physical Graffiti – Disc 1”
FILE “Led Zeppelin – Physical Graffiti – Disc 1.flac” WAVE
TRACK 01 AUDIO
TITLE “Custard Pie”
PERFORMER “Led Zeppelin”
INDEX 01 00:00:00
TRACK 02 AUDIO
TITLE “The Rover”
PERFORMER “Led Zeppelin”
INDEX 00 04:13:00
INDEX 01 04:13:72
TRACK 03 AUDIO
TITLE “In My Time of Dying”
PERFORMER “Led Zeppelin”
INDEX 00 09:50:42
INDEX 01 09:51:07
TRACK 04 AUDIO
TITLE “Houses of the Holy”
PERFORMER “Led Zeppelin”
INDEX 00 20:56:17
INDEX 01 20:57:05
TRACK 05 AUDIO
TITLE “Trampled Under Foot”
PERFORMER “Led Zeppelin”
INDEX 00 24:59:25
INDEX 01 24:59:30
TRACK 06 AUDIO
TITLE “Kashmir”
PERFORMER “Led Zeppelin”
INDEX 00 30:35:25
INDEX 01 30:35:70

REM GENRE Rock
REM DATE 1975
REM DISCID 780A3A09
REM COMMENT “ExactAudioCopy v0.99pb5”
PERFORMER “Led Zeppelin”
TITLE “Physical Graffiti cd2”
FILE “Led Zeppelin – Physical Graffiti cd2.flac” WAVE
TRACK 01 AUDIO
TITLE “In The Light”
PERFORMER “Led Zeppelin”
INDEX 01 00:00:00
TRACK 02 AUDIO
TITLE “Bron-Yr-Aur”
PERFORMER “Led Zeppelin”
INDEX 00 08:45:15
INDEX 01 08:46:68
TRACK 03 AUDIO
TITLE “Down By The Seaside”
PERFORMER “Led Zeppelin”
INDEX 01 10:53:23
TRACK 04 AUDIO
TITLE “Ten Years Gone”
PERFORMER “Led Zeppelin”
INDEX 00 16:07:10
INDEX 01 16:09:20
TRACK 05 AUDIO
TITLE “Night Flight”
PERFORMER “Led Zeppelin”
INDEX 00 22:41:45
INDEX 01 22:42:43
TRACK 06 AUDIO
TITLE “The Wanton Song”
PERFORMER “Led Zeppelin”
INDEX 00 26:18:60
INDEX 01 26:20:15
TRACK 07 AUDIO
TITLE “Boogie With Stu”
PERFORMER “Led Zeppelin”
INDEX 00 30:27:60
INDEX 01 30:29:60
TRACK 08 AUDIO
TITLE “Black Country Woman”
PERFORMER “Led Zeppelin”
INDEX 00 34:21:45
INDEX 01 34:22:73
TRACK 09 AUDIO
TITLE “Sick Again”
PERFORMER “Led Zeppelin”
INDEX 00 38:47:25
INDEX 01 38:55:70


Leave a Reply

Your email address will not be published. Required fields are marked *

This site uses Akismet to reduce spam. Learn how your comment data is processed.